<?xml version="1.0" standalone="no"?>
<!DOCTYPE svg PUBLIC "-//W3C//DTD SVG 1.1//EN" "http://www.w3.org/Graphics/SVG/1.1/DTD/svg11.dtd" >
<svg xmlns="http://www.w3.org/2000/svg">
<metadata>Generated by IcoMoon</metadata>
<defs>
<font id="icomoon" horiz-adv-x="1024">
<font-face units-per-em="1024" ascent="960" descent="-64" />
<missing-glyph horiz-adv-x="1024" />
<glyph unicode="&#x20;" horiz-adv-x="512" d="" />
<glyph unicode="&#xe900;" glyph-name="barber-1" d="M980.458 914.276c-35.974-8.659-333.29-80.139-561.909-134.968 1.848 3.072 3.695 6.166 5.543 9.238 16.117 24.487-22.862 39.847-76.043 18.677-23.5-16.083-43.233-35.724-58.924-58.377l-0.49-0.748c-82.543-19.79-138.173-33.169-138.173-33.169s-19.59-13.935-4.118-23.953c5.236-0.165 11.395-0.258 17.575-0.258 32.046 0 63.502 2.522 94.182 7.379l-3.391-0.442c-125.596-205.535-254.375-607.343-255.199-643.139-1.069-44.833 126.709-98.705 111.304-64.868 9.862 195.539 105.895 443.414 273.898 732.494 29.506 8.19 66.575 15.851 104.356 21.314l5.167 0.613c40.782 0.824 144.696 18.543 144.696 18.543s1.291-31.032 9.906-28.761 371.489 94.631 371.489 94.631 19.523 100.085-39.869 85.793zM73.995 43.231c-2.44-2.053-5.617-3.3-9.086-3.3-4.303 0-8.158 1.92-10.755 4.95l-0.016 0.019c-2.049 2.414-3.296 5.565-3.296 9.007 0 4.283 1.929 8.116 4.966 10.676l0.021 0.017c2.455 2.056 5.648 3.305 9.132 3.305 4.291 0 8.139-1.894 10.755-4.891l0.014-0.017c2.064-2.415 3.32-5.575 3.32-9.028 0-4.311-1.958-8.165-5.033-10.722l-0.023-0.018zM365.746 747.053c-2.446-2.018-5.612-3.242-9.064-3.242-4.337 0-8.223 1.932-10.844 4.982l-0.016 0.019c-2.002 2.41-3.218 5.536-3.218 8.946 0 7.758 6.289 14.047 14.047 14.047s14.047-6.289 14.047-14.047c0-4.28-1.914-8.112-4.933-10.689l-0.020-0.016z" />
<glyph unicode="&#xe901;" glyph-name="barber-2" d="M1024 672.853l-26.176 1.643s-207.275-65.984-360.939-115.733c-11.563-34.56-22.059-65.792-30.443-90.347zM475.157 504.96c-128.661-41.195-256.469 15.787-265.6 19.968-19.657 11.756-43.362 18.707-68.69 18.707-24.319 0-47.141-6.408-66.87-17.628l0.669 0.35c-30.306-16.032-53.642-41.833-66.138-73.135l-0.337-0.956c-5.145-12.47-8.132-26.949-8.132-42.126 0-19.063 4.713-37.024 13.037-52.784l-0.297 0.616c5.143-9.629 11.247-17.91 18.366-25.194l-0.020 0.020c23.38-21.827 54.871-35.227 89.491-35.227 24.196 0 46.863 6.545 66.327 17.962v0.006l-0.384-0.725 331.712 162.667-12.587 38.4c-17.045-5.803-28.053-9.685-30.549-10.923zM168.277 349.355c-13.593-8.23-30.017-13.1-47.578-13.1-23.899 0-45.692 9.020-62.16 23.841l0.084-0.075c-4.525 4.641-8.415 9.932-11.509 15.714l-0.182 0.372c-5.149 9.897-8.169 21.611-8.169 34.031 0 10.221 2.046 19.965 5.75 28.843l-0.183-0.495c9.384 23.393 26.379 42.086 47.864 53.405l0.563 0.27c13.59 8.241 30.015 13.118 47.578 13.118 23.896 0 45.683-9.027 62.137-23.858l-0.083 0.074c4.566-4.659 8.491-9.971 11.615-15.779l0.182-0.371c5.152-9.903 8.174-21.624 8.174-34.051 0-10.189-2.032-19.904-5.712-28.761l0.183 0.497c-9.432-23.401-26.468-42.093-47.989-53.404l-0.565-0.271zM579.563 7.061c12.025 19.915 19.14 43.966 19.14 69.68 0 25.24-6.855 48.878-18.805 69.155l0.347-0.637c-5.781 14.144-54.443 139.349-10.859 264.533 9.664 18.944 175.296 525.056 175.296 525.056l-1.984 24.96-221.291-439.467 21.717-66.56-166.891-322.581c-1.259-2.027-2.603-3.968-3.776-6.059-12.233-19.677-19.485-43.557-19.485-69.13 0-33.921 12.759-64.863 33.74-88.286l-0.111 0.126c6.826-6.988 14.574-13.031 23.058-17.943l0.515-0.275c15.724-8.961 34.55-14.244 54.61-14.244 14.039 0 27.474 2.587 39.853 7.312l-0.767-0.257c32.688 11.991 59.037 34.755 75.325 63.905l0.366 0.713zM550.912 499.2c-3.639 3.679-5.887 8.74-5.887 14.326 0 11.252 9.121 20.373 20.373 20.373s20.373-9.121 20.373-20.373c0-5.703-2.343-10.859-6.12-14.557l-0.004-0.003c-3.657-3.626-8.693-5.866-14.252-5.866-5.675 0-10.805 2.335-14.481 6.097l-0.004 0.004zM491.179-21.035c-7.829-3.081-16.895-4.867-26.379-4.867-13.057 0-25.323 3.385-35.969 9.326l0.375-0.192c-5.765 3.324-10.73 7.194-15.091 11.656l-0.013 0.013c-14.036 16.265-22.586 37.607-22.586 60.947 0 18.542 5.396 35.824 14.703 50.361l-0.224-0.374c12.015 21.815 31.093 38.49 54.097 47.148l0.708 0.234c7.808 3.055 16.849 4.826 26.304 4.826 13.042 0 25.297-3.37 35.941-9.286l-0.378 0.193c5.768-3.358 10.743-7.226 15.141-11.664l0.005-0.005c14.027-16.27 22.57-37.614 22.57-60.953 0-18.538-5.39-35.817-14.688-50.356l0.225 0.376c-12.009-21.778-31.042-38.435-53.991-47.125l-0.708-0.235z" />
<glyph unicode="&#xe902;" glyph-name="barber-3" d="M652.578 409.397l10.665 10.839-46.466 76.858 29.541 30.14 42.506-74.849 11.592 11.824 10.665-22.412 16.075 7.979-13.37 28.092 10.646 10.839-44.341 73.052 34.777 35.454 41.926-73.863 11.592 11.824 10.646-22.431 16.075 7.941-13.37 28.112 10.646 10.839-43.646 72.163 29.483 30.005 39.743-70.018 11.592 11.805 10.684-22.393 16.094 7.941-13.409 28.112 10.646 10.839-41.327 68.299 39.55 40.322 40.825-71.95 11.592 11.824 10.665-22.412 16.075 7.96-13.37 28.092 10.646 10.858-42.448 70.173 29.483 29.889 38.642-68.067 11.592 11.824 10.588-22.335 16.075 7.941-13.37 28.092 25.89 25.658-62.309 103.096-108.93 72.781-26.064-25.832-29.483 14.568-7.728-16.384 23.822-11.766-12.095-12.288 82.036-49.558-29.599-30.16-77.283 48.302-10.858-11.090-29.387 14.568-7.728-16.384 23.861-11.824-12.037-12.307 78.249-47.278-37.444-38.158-79.215 49.326-10.8-10.994-29.406 14.549-7.728-16.384 23.861-11.805-12.075-12.249 80.142-48.437-29.599-30.14-75.448 47.104-10.82-11.051-29.406 14.568-7.728-16.384 23.533-11.824-12.037-12.269 76.356-46.157-33.695-34.333-74.578 46.486-10.8-11.013-29.445 14.529-7.728-16.365 23.765-11.824-12.075-12.269 75.448-45.578-29.541-30.102-70.83 44.167-10.82-11.013-29.406 14.529-7.728-16.365 23.668-11.766-12.037-12.269 71.68-43.317-31.841-32.517-57.093 58.155-92.43-94.131s1.275-79.775-24.383-99.386l-302.138-307.876 101.395-103.269 298.351 303.993c31.435 33.348 98.826 31.416 98.826 31.416l92.392 94.131-60.938 62.078 33.599 34.217 44.708-78.655 11.592 11.786 10.646-22.412 16.075 7.96z" />
<glyph unicode="&#xe903;" glyph-name="barber-4" d="M688.296 192.54c-4.524 52.931-55.706 657.222-55.706 721.548 0 67.193-241.385 54.924-241.385 0 0-52.559-51.274-668.095-55.706-721.548h-0.372v-120.255h31.893v-135.913h18.749v92.514h7.875v-92.607h12.847v92.607h7.875v-92.607h13.163v92.607h7.857v-92.607h12.884v92.607h7.875v-92.607h14.317v92.607h7.894v-92.607h12.809v92.607h7.801v-92.607h13.238v92.607h7.913v-92.607h12.828v92.607h7.894v-92.607h15.472v92.607h7.82v-92.607h13.033v92.607h7.838v-92.607h13.182v92.607h7.838v-92.607h12.865v92.607h7.801v-92.607h14.262v92.607h7.894v-92.607h16.403v135.913h23.366v120.348h-0.317zM511.87 505.53c19.977 0 36.212-35.375 36.212-79.053s-16.235-79.016-36.212-79.016-36.194 35.375-36.194 79.016 16.198 79.053 36.194 79.053zM656.682 139.813h-289.662v20.61h289.662v-20.629zM511.87 461.182c9.588 0 17.371-16.98 17.371-37.907s-7.782-37.944-17.371-37.944-17.352 16.98-17.352 37.944 7.782 37.907 17.352 37.907z" />
<glyph unicode="&#xe904;" glyph-name="construction-1" d="M334.154 741.819h-149.087c-9.58 0-17.356 7.758-17.356 17.356s7.775 17.356 17.356 17.356h149.087c9.58 0 17.356-7.758 17.356-17.356s-7.758-17.356-17.356-17.356zM334.154 682.166h-149.087c-9.58 0-17.356 7.758-17.356 17.356s7.775 17.356 17.356 17.356h149.087c9.58 0 17.356-7.758 17.356-17.356s-7.758-17.356-17.356-17.356zM185.066 652.349c-9.58 0-17.356 7.758-17.356 17.356v119.27c0 9.598 7.775 17.356 17.356 17.356s17.356-7.758 17.356-17.356v-119.27c0-9.58-7.775-17.356-17.356-17.356zM841.086 741.819h-149.087c-9.58 0-17.356 7.758-17.356 17.356s7.775 17.356 17.356 17.356h149.087c9.58 0 17.356-7.758 17.356-17.356s-7.758-17.356-17.356-17.356zM841.086 682.166h-149.087c-9.58 0-17.356 7.758-17.356 17.356s7.775 17.356 17.356 17.356h149.087c9.58 0 17.356-7.758 17.356-17.356s-7.758-17.356-17.356-17.356zM841.086 652.349c-9.58 0-17.356 7.758-17.356 17.356v119.27c0 9.598 7.775 17.356 17.356 17.356s17.356-7.758 17.356-17.356v-119.27c0-9.58-7.758-17.356-17.356-17.356zM572.728 443.609h-119.287c-26.017 0-47.173 21.174-47.173 47.191 0 66.768-4.131 72.097-27.37 72.097-34.243 0-62.082 27.839-62.082 62.082v208.74c0 34.243 27.839 62.082 62.082 62.082h268.375c34.243 0 62.082-27.839 62.082-62.082v-208.722c0-34.243-27.839-62.082-62.082-62.082-23.934 0-27.37-4.46-27.37-72.097 0-26.034-21.157-47.208-47.173-47.208zM378.897 861.089c-15.1 0-27.37-12.271-27.37-27.37v-208.722c0-15.1 12.288-27.37 27.37-27.37 62.082 0 62.082-49.499 62.082-106.808 0-6.873 5.589-12.479 12.462-12.479h119.287c6.873 0 12.462 5.589 12.462 12.479 0 59.67 0 106.808 62.082 106.808 15.1 0 27.37 12.271 27.37 27.37v208.722c0 15.1-12.288 27.37-27.37 27.37h-268.375zM513.076 652.349c-9.58 0-17.356 7.758-17.356 17.356v119.27c0 9.598 7.775 17.356 17.356 17.356s17.356-7.758 17.356-17.356v-119.27c0-9.58-7.775-17.356-17.356-17.356zM572.728 652.349c-9.58 0-17.356 7.758-17.356 17.356v119.27c0 9.598 7.775 17.356 17.356 17.356s17.356-7.758 17.356-17.356v-119.27c0-9.58-7.775-17.356-17.356-17.356zM453.441 652.349c-9.58 0-17.356 7.758-17.356 17.356v119.27c0 9.598 7.775 17.356 17.356 17.356s17.356-7.758 17.356-17.356v-119.27c0-9.58-7.775-17.356-17.356-17.356zM572.728 234.887h-119.287c-9.58 0-17.356 7.758-17.356 17.356v208.722c0 9.598 7.775 17.356 17.356 17.356s17.356-7.758 17.356-17.356v-191.367h84.575v191.367c0 9.598 7.775 17.356 17.356 17.356s17.356-7.758 17.356-17.356v-208.722c0-9.598-7.775-17.356-17.356-17.356zM542.894-3.671h-59.635c-9.58 0-17.356 7.758-17.356 17.356v238.557c0 9.598 7.775 17.356 17.356 17.356s17.356-7.758 17.356-17.356v-221.201h24.923v221.201c0 9.598 7.775 17.356 17.356 17.356s17.356-7.758 17.356-17.356v-238.557c0-9.598-7.758-17.356-17.356-17.356zM632.363 26.129c-4.443 0-8.886 1.701-12.271 5.085-6.786 6.786-6.786 17.755 0 24.541l77.182 77.182-17.547 17.564c-6.769 6.786-6.769 17.755 0 24.541l89.452 89.452c6.786 6.786 17.755 6.786 24.541 0s6.786-17.755 0-24.541l-77.182-77.182 17.547-17.564c6.769-6.786 6.769-17.755 0-24.541l-89.452-89.452c-3.402-3.384-7.845-5.085-12.271-5.085zM393.806 26.129c-4.443 0-8.886 1.701-12.271 5.085l-89.47 89.452c-6.786 6.786-6.786 17.755 0 24.541l17.547 17.564-77.182 77.182c-6.786 6.786-6.786 17.755 0 24.541s17.755 6.786 24.541 0l89.452-89.452c6.786-6.786 6.786-17.755 0-24.541l-17.547-17.564 77.199-77.182c6.786-6.786 6.786-17.755 0-24.541-3.384-3.384-7.828-5.085-12.271-5.085z" />
<glyph unicode="&#xe905;" glyph-name="construction-2" d="M497.172 432.534c-2.314 0-4.641 0.612-6.703 1.809l-159.584 93.091c-4.096 2.394-6.596 6.769-6.596 11.49v132.987c0 7.354 5.945 13.299 13.299 13.299h93.091c4.827 0 9.282-2.62 11.623-6.849l66.494-119.688c1.104-1.968 1.676-4.189 1.676-6.45v-106.39c0-4.761-2.54-9.15-6.676-11.53-2.048-1.184-4.335-1.769-6.623-1.769zM350.886 546.557l132.987-77.571v79.792l-61.028 109.834h-71.959v-112.055zM550.367 343.871c-7.354 0-13.299 5.945-13.299 13.299v204.933c-9.056 16.504-51.227 93.61-61.52 117.627-10.134 23.672-18.445 32.076-44.87 32.076h-106.39c-14.668 0-26.597-11.929-26.597-26.597v-172.883c0-7.354-5.945-13.299-13.299-13.299s-13.299 5.945-13.299 13.299v172.883c0 29.337 23.858 53.195 53.195 53.195h106.39c40.548 0 56.586-18.445 69.313-48.194 10.812-25.174 61.52-117.348 62.025-118.279 1.077-1.955 1.649-4.162 1.649-6.41v-208.351c0-7.354-5.945-13.299-13.299-13.299zM603.562 233.053h-385.662c-29.337 0-53.195 23.858-53.195 53.195v186.182c0 29.337 23.858 53.195 53.195 53.195h66.494c2.354 0 4.668-0.625 6.703-1.809l319.169-186.182c4.096-2.394 6.596-6.769 6.596-11.49v-79.792c0-7.354-5.945-13.299-13.299-13.299zM217.899 499.027c-14.668 0-26.597-11.929-26.597-26.597v-186.182c0-14.668 11.929-26.597 26.597-26.597h372.364v58.86l-309.461 180.517h-62.903zM603.562 73.469h-398.961c-36.665 0-66.494 29.829-66.494 66.494s29.829 66.494 66.494 66.494h398.961c36.665 0 66.494-29.829 66.494-66.494s-29.829-66.494-66.494-66.494zM204.601 179.858c-21.996 0-39.896-17.9-39.896-39.896s17.9-39.896 39.896-39.896h398.961c21.996 0 39.896 17.9 39.896 39.896s-17.9 39.896-39.896 39.896h-398.961zM789.757 73.469c-1.064 0-2.154 0.133-3.232 0.399-1.17 0.279-116.47 30.76-116.47 172.484 0 7.354 5.945 13.299 13.299 13.299s13.299-5.945 13.299-13.299c0-121.204 95.352-146.445 96.309-146.685 7.128-1.782 11.463-9.003 9.681-16.118-1.503-6.064-6.915-10.080-12.886-10.080zM284.393 419.235h-53.195c-7.354 0-13.299 5.945-13.299 13.299s5.945 13.299 13.299 13.299h53.195c7.354 0 13.299-5.945 13.299-13.299s-5.945-13.299-13.299-13.299zM284.393 366.040h-53.195c-7.354 0-13.299 5.945-13.299 13.299s5.945 13.299 13.299 13.299h53.195c7.354 0 13.299-5.945 13.299-13.299s-5.945-13.299-13.299-13.299zM284.393 312.845h-53.195c-7.354 0-13.299 5.945-13.299 13.299s5.945 13.299 13.299 13.299h53.195c7.354 0 13.299-5.945 13.299-13.299s-5.945-13.299-13.299-13.299zM550.367 530.173c-3.404 0-6.809 1.303-9.402 3.897-5.2 5.2-5.2 13.605 0 18.804l170.596 170.609c7.527 7.527 11.69 17.541 11.69 28.207s-4.162 20.679-11.69 28.207c-15.067 15.067-41.346 15.067-56.413 0l-140.248-140.222c-5.2-5.2-13.605-5.2-18.804 0s-5.2 13.605 0 18.804l140.248 140.235c12.541 12.554 29.244 19.483 47.011 19.483s34.47-6.929 47.011-19.483c12.554-12.541 19.483-29.244 19.483-47.011s-6.929-34.47-19.483-47.011l-170.596-170.622c-2.593-2.593-5.998-3.897-9.402-3.897zM829.639 472.43c-5.532 0-10.705 3.484-12.581 9.003l-99.062 290.444c-2.38 6.955 1.343 14.522 8.285 16.889 6.955 2.42 14.522-1.343 16.889-8.285l99.062-290.457c2.38-6.955-1.343-14.522-8.285-16.889-1.436-0.492-2.873-0.705-4.309-0.705zM789.757 445.832c-4.854 0-9.548 2.66-11.889 7.301l-108.677 215.067c-3.311 6.556-0.692 14.562 5.865 17.873 6.543 3.325 14.562 0.692 17.873-5.865l108.677-215.067c3.311-6.556 0.692-14.562-5.865-17.873-1.915-0.984-3.963-1.436-5.984-1.436zM775.647 313.018c-35.734 0-72.225 10.639-94.088 30.667l-22.448-4.043c-6.038-1.104-12.022 2.088-14.509 7.7-2.5 5.612-0.825 12.195 4.056 15.932l172.883 132.987c5.585 4.269 13.551 3.471 18.153-1.849l8.285-9.575c24.084-27.196 37.595-65.257 34.364-96.841-2.274-22.169-12.381-40.548-29.217-53.142-19.775-14.775-48.381-21.836-77.478-21.836zM696.386 366.439c28.047-31.026 105.406-36.744 140.82-10.267 10.878 8.139 17.169 19.762 18.685 34.563 2.474 24.15-8.737 54.95-27.927 76.614l-0.173 0.199-131.404-101.11zM204.601 73.469c-36.665 0-66.494 29.829-66.494 66.494s29.829 66.494 66.494 66.494 66.494-29.829 66.494-66.494c0-36.665-29.829-66.494-66.494-66.494zM204.601 179.858c-21.996 0-39.896-17.9-39.896-39.896s17.9-39.896 39.896-39.896 39.896 17.9 39.896 39.896-17.887 39.896-39.896 39.896zM337.588 73.469c-36.665 0-66.494 29.829-66.494 66.494s29.829 66.494 66.494 66.494 66.494-29.829 66.494-66.494c0-36.665-29.829-66.494-66.494-66.494zM337.588 179.858c-21.996 0-39.896-17.9-39.896-39.896s17.9-39.896 39.896-39.896 39.896 17.9 39.896 39.896-17.887 39.896-39.896 39.896zM470.575 73.469c-36.665 0-66.494 29.829-66.494 66.494s29.829 66.494 66.494 66.494 66.494-29.829 66.494-66.494c0-36.665-29.829-66.494-66.494-66.494zM470.575 179.858c-21.996 0-39.896-17.9-39.896-39.896s17.9-39.896 39.896-39.896 39.896 17.9 39.896 39.896-17.887 39.896-39.896 39.896zM603.562 73.469c-36.665 0-66.494 29.829-66.494 66.494s29.829 66.494 66.494 66.494 66.494-29.829 66.494-66.494c0-36.665-29.829-66.494-66.494-66.494zM603.562 179.858c-21.996 0-39.896-17.9-39.896-39.896s17.9-39.896 39.896-39.896 39.896 17.9 39.896 39.896-17.887 39.896-39.896 39.896z" />
<glyph unicode="&#xe906;" glyph-name="construction-3" d="M673.684 43.789c-5.767 0-10.9 3.678-12.76 9.149l-80.842 238.134c-0.472 1.388-0.714 2.843-0.714 4.325v435.55c0 7.437 6.036 13.474 13.474 13.474h161.684c7.437 0 13.474-6.036 13.474-13.474v-435.55c0-1.469-0.243-2.937-0.714-4.325l-80.842-238.134c-1.859-5.47-6.993-9.149-12.76-9.149zM606.316 297.62l67.368-198.44 67.368 198.44v419.853h-134.737v-419.853zM700.632 259.368c-3.449 0-6.899 1.32-9.526 3.948l-44.719 44.706-39.316-36.514c-5.47-5.053-13.986-4.743-19.052 0.701-5.053 5.457-4.743 13.986 0.701 19.052l48.842 45.352c5.322 4.918 13.568 4.783 18.701-0.35l44.369-44.369 44.369 44.369c5.268 5.268 13.784 5.268 19.052 0s5.268-13.784 0-19.052l-53.895-53.895c-2.627-2.627-6.077-3.948-9.526-3.948zM701.13 124.632h-54.892c-7.437 0-13.474 6.036-13.474 13.474s6.036 13.474 13.474 13.474h54.892c7.437 0 13.474-6.036 13.474-13.474s-6.036-13.474-13.474-13.474zM646.737 367.158c-7.437 0-13.474 6.036-13.474 13.474v296.421c0 7.437 6.036 13.474 13.474 13.474s13.474-6.036 13.474-13.474v-296.421c0-7.437-6.036-13.474-13.474-13.474zM458.105 43.789h-188.632c-7.437 0-13.474 6.036-13.474 13.474v781.474c0 7.437 6.036 13.474 13.474 13.474h188.632c7.437 0 13.474-6.036 13.474-13.474v-781.474c0-7.437-6.036-13.474-13.474-13.474zM282.947 70.737h161.684v754.526h-161.684v-754.526zM458.105 394.105h-107.789c-7.437 0-13.474 6.036-13.474 13.474s6.036 13.474 13.474 13.474h107.789c7.437 0 13.474-6.036 13.474-13.474s-6.036-13.474-13.474-13.474zM458.105 474.947h-53.895c-7.437 0-13.474 6.036-13.474 13.474s6.036 13.474 13.474 13.474h53.895c7.437 0 13.474-6.036 13.474-13.474s-6.036-13.474-13.474-13.474zM458.105 555.789h-107.789c-7.437 0-13.474 6.036-13.474 13.474s6.036 13.474 13.474 13.474h107.789c7.437 0 13.474-6.036 13.474-13.474s-6.036-13.474-13.474-13.474zM458.105 717.474h-107.789c-7.437 0-13.474 6.036-13.474 13.474s6.036 13.474 13.474 13.474h107.789c7.437 0 13.474-6.036 13.474-13.474s-6.036-13.474-13.474-13.474zM458.105 636.632h-53.895c-7.437 0-13.474 6.036-13.474 13.474s6.036 13.474 13.474 13.474h53.895c7.437 0 13.474-6.036 13.474-13.474s-6.036-13.474-13.474-13.474zM458.105 151.579h-80.842c-7.437 0-13.474 6.036-13.474 13.474s6.036 13.474 13.474 13.474h80.842c7.437 0 13.474-6.036 13.474-13.474s-6.036-13.474-13.474-13.474zM458.105 232.421h-107.789c-7.437 0-13.474 6.036-13.474 13.474s6.036 13.474 13.474 13.474h107.789c7.437 0 13.474-6.036 13.474-13.474s-6.036-13.474-13.474-13.474zM458.105 313.263h-53.895c-7.437 0-13.474 6.036-13.474 13.474s6.036 13.474 13.474 13.474h53.895c7.437 0 13.474-6.036 13.474-13.474s-6.036-13.474-13.474-13.474zM754.526 717.474c-7.437 0-13.474 6.036-13.474 13.474v67.368c0 14.861-12.086 26.947-26.947 26.947h-80.842c-14.861 0-26.947-12.086-26.947-26.947v-67.368c0-7.437-6.036-13.474-13.474-13.474s-13.474 6.036-13.474 13.474v67.368c0 29.723 24.172 53.895 53.895 53.895h80.842c29.723 0 53.895-24.172 53.895-53.895v-67.368c0-7.437-6.036-13.474-13.474-13.474z" />
<glyph unicode="&#xe907;" glyph-name="ebook-1" d="M921.6 140.8v-170.655h-810.673c-42.395 0.050-76.75 34.405-76.8 76.795v588.717h-34.127v-588.712c0.060-61.243 49.686-110.875 110.921-110.945h827.752c0.005 0 0.011 0 0.018 0 9.419 0 17.055 7.636 17.055 17.055v0 187.745h-34.145zM938.655 567.402h-827.727c-42.415 0-76.8 34.385-76.8 76.8s34.385 76.8 76.8 76.8v0h298.673v34.11h-298.673c-0.416 0.006-0.907 0.009-1.399 0.009-61.264 0-110.927-49.664-110.927-110.927s49.664-110.927 110.927-110.927c0.492 0 0.983 0.003 1.474 0.010l-0.075-0.001h810.673v-153.6h34.127v170.726c-0.030 9.396-7.654 17.002-17.055 17.002 0 0 0 0 0 0v0zM1006.927 755.112h-136.527v-34.127h119.473v-563.2h-68.273v-34.11h85.327c0.011 0 0.023 0 0.036 0 9.409 0 17.037 7.628 17.037 17.037 0 0.031 0 0.062 0 0.093v-0.005 597.239c0 9.419-7.636 17.055-17.055 17.055-0.006 0-0.012 0-0.019 0h0.001zM682.673 328.492c-37.689-0.010-68.237-30.565-68.237-68.255 0-37.696 30.559-68.255 68.255-68.255s68.255 30.559 68.255 68.255v0c-0.050 37.682-30.589 68.215-68.269 68.255h-0.004zM682.673 226.092c-18.848 0-34.127 15.279-34.127 34.127s15.279 34.127 34.127 34.127c18.842 0 34.117-15.269 34.127-34.109v-0.001c-0.020-18.84-15.287-34.107-34.126-34.127h-0.002zM1006.927 396.8h-324.255c-75.392 0-136.51-61.118-136.51-136.51s61.118-136.51 136.51-136.51h324.255c0.010 0 0.023 0 0.035 0 9.403 0 17.027 7.618 17.037 17.019v238.893c0 0.016 0 0.034 0 0.053 0 9.419-7.636 17.055-17.055 17.055-0.006 0-0.012 0-0.019 0h0.001zM989.873 157.855h-307.2c-56.554 0-102.4 45.846-102.4 102.4s45.846 102.4 102.4 102.4h307.2v-204.8zM988.548 644.89l-285.873 290.251c-15.449 15.395-36.764 24.914-60.301 24.914s-44.852-9.519-60.304-24.916l0.003 0.003-377.98-372.683 23.958-24.294 378.103 372.771c9.268 9.281 22.078 15.022 36.229 15.022 14.010 0 26.706-5.627 35.951-14.745l-0.006 0.006c0.070-0.060 0.134-0.124 0.192-0.192l0.002-0.002 285.749-290.145c9.175-9.25 14.845-21.989 14.845-36.052s-5.67-26.802-14.848-36.055l0.003 0.003-37.711-37.553 24.064-24.188 37.782 37.606c15.324 15.443 24.795 36.713 24.795 60.196 0 23.412-9.413 44.626-24.662 60.062l0.009-0.009zM830.464 635.657c-47.145-0.010-85.365-38.206-85.416-85.34v-0.005h34.127c0 28.277 22.923 51.2 51.2 51.2s51.2-22.923 51.2-51.2v0h34.127c-0.060 47.070-38.176 85.217-85.229 85.327h-0.011zM501.177 657.62l153.6 153.6-24.135 24.135-153.6-153.6zM620.65 674.763l85.327 85.31-24.135 24.135-85.31-85.31zM128 686.822c-61.229-0.070-110.847-49.682-110.927-110.902v-0.008h34.127c0.060 42.388 34.411 76.732 76.795 76.782h213.332v34.127h-213.327zM34.145 550.259v0.040c-0.003-0.261-0.004-0.522-0.004-0.783 0-4.679 0.425-9.259 1.169-13.24l-33.545-6.109 0.106-0.679c-1.23 6.573-1.873 13.353-1.873 20.284 0 0.221 0.001 0.442 0.002 0.628l34.145-0.141zM228.652 482.074v-34.074h34.639v34.074h-34.639zM367.228 482.074v-34.074h34.657v34.074h-34.639zM297.966 482.074v-34.074h34.622v34.074h-34.639zM45.727 512.088l-26.942-20.886c8.404-10.741 18.457-19.732 29.863-26.735l0.487-0.278 17.655 29.166c-8.248 5.070-15.22 11.328-20.915 18.63l-0.13 0.173zM159.391 482.074v-34.074h34.639v34.074h-34.657zM93.272 483.31l-0.754 0.088c4.804-0.684 9.686-1.127 14.896-1.324h17.337v-34.18h-17.488c-7.139 0.011-14.121 0.691-20.189 1.871l6.197 33.545zM575.135 482.074v-34.074h34.639v34.074h-34.639zM436.542 482.074v-34.074h34.657v34.074h-34.639zM783.007 482.074v-34.074h34.622v34.074h-34.622zM852.286 482.074v-34.074h34.657v34.074h-34.639zM713.71 482.074v-34.074h34.657v34.074h-34.639zM644.414 482.074v-34.074h34.639v34.074h-34.622zM505.838 482.074v-34.074h34.639v34.074h-34.622zM921.706 482.074h17.073v-34.074h-17.178v34.074zM34.145 123.674l-34.145 0.088c-0.001-0.191-0.002-0.416-0.002-0.642 0-6.925 0.643-13.701 1.873-20.269l-0.106 0.678 33.545 6.25c-0.743 3.963-1.169 8.522-1.169 13.18 0 0.251 0.001 0.502 0.004 0.753v-0.038zM436.542 55.455v-34.127h34.639v34.127h-34.639zM367.228 55.455v-34.127h34.657v34.127h-34.639zM297.966 55.455v-34.127h34.622v34.127h-34.639zM45.727 85.469l-26.942-20.886c8.402-10.743 18.456-19.734 29.863-26.735l0.486-0.278 17.655 29.166c-8.249 5.075-15.221 11.339-20.915 18.647l-0.13 0.174zM93.255 56.602l-6.162-33.545c5.976-1.124 12.852-1.766 19.877-1.766 0.144 0 0.287 0 0.431 0.001h17.315v34.163h-17.337c-0.044 0-0.095 0-0.147 0-4.934 0-9.762 0.45-14.447 1.31l0.488-0.074zM159.391 55.455v-34.216h34.639v34.127h-34.657zM228.67 55.455v-34.216h34.639v34.127h-34.639zM783.007 55.455v-34.216h34.657v34.127h-34.622zM713.71 55.455v-34.216h34.675v34.127h-34.639zM852.286 55.455v-34.216h34.675v34.127h-34.639zM505.838 55.455v-34.216h34.675v34.127h-34.639zM575.135 55.455v-34.216h34.675v34.127h-34.639zM644.414 55.455v-34.216h34.675v34.127h-34.622zM921.653 55.367h17.073v-34.127h-17.126v34.216zM938.726 686.751h68.273v-33.951h-68.255v34.057zM711.804 623.616l68.273 68.255-24.135 24.135-68.273-68.255zM602.271 562.406l51.2 51.2 24.135-24.135-51.2-51.2z" />
<glyph unicode="&#xe908;" glyph-name="ebook-2" d="M890.527 278.452l-95.501-137.334-67.399 55.397c-2.92 2.408-6.699 3.869-10.819 3.869-9.424 0-17.063-7.639-17.063-17.063 0-5.303 2.419-10.042 6.215-13.171l0.029-0.023 81.685-67.148c2.917-2.423 6.7-3.894 10.827-3.895v0c0.005 0 0.010 0 0.016 0 0.818 0 1.621 0.061 2.406 0.179l-0.088-0.011c4.885 0.671 9.046 3.319 11.715 7.097l0.036 0.054 106.060 152.526c1.913 2.724 3.057 6.109 3.057 9.762 0 9.453-7.663 17.116-17.116 17.116-5.8 0-10.927-2.885-14.023-7.299l-0.036-0.055zM802.145 405.345c-0.060 0-0.131 0-0.201 0-122.639 0-222.057-99.418-222.057-222.057s99.418-222.057 222.057-222.057c122.627 0 222.038 99.399 222.057 222.021v0.002c-0.095 122.535-99.351 221.856-221.853 222.057h-0.019zM802.145-4.608c-0.050 0-0.109 0-0.168 0-103.772 0-187.896 84.124-187.896 187.896s84.124 187.896 187.896 187.896c103.772 0 187.896-84.124 187.896-187.896 0-0.012 0-0.024 0-0.035v0.002c-0.067-103.692-84.065-187.743-187.73-187.896h-0.015zM796.739 456.276c5.333 10.734 11.030 24.267 15.99 38.151l0.881 2.826c23.623 10.931 39.718 34.431 39.718 61.691 0 0.030 0 0.060 0 0.090v-0.005 68.323c-0.075 17.236-6.535 32.949-17.134 44.909l0.062-0.071v90.867c0.328 3.759 0.515 8.132 0.515 12.549 0 37.806-13.691 72.413-36.386 99.136l0.182-0.22c-35.085 40.020-91.942 60.298-169.094 60.298s-134.043-20.279-169.111-60.282c-19.201-22.182-31.988-50.396-35.199-81.452l-0.053-0.636c-28.586 14.422-62.307 22.867-98.001 22.867-1.712 0-3.42-0.019-5.123-0.058l0.254 0.005c-177.303 0-187.627-151.267-187.728-153.734v-78.21c-10.118-10.286-16.525-24.249-17.036-39.705l-0.003-0.097v-59.006c0-0.006 0-0.013 0-0.021 0-18.98 8.673-35.934 22.271-47.116l0.106-0.084c12.543-41.947 33.962-77.99 62.199-107.444l-0.088 0.092v-46.852c-0.080-14.155-8.072-26.425-19.775-32.62l-0.202-0.097-113.479-71.277c-42.325-23.441-70.505-67.838-70.505-118.817 0-0.018 0-0.036 0-0.054v0.003-64.848h604.328c-46.591 48.849-75.261 115.149-75.261 188.145 0 148.861 119.231 269.874 267.403 272.751l0.269 0.004zM238.928 29.52h-204.8v30.703c0 0.022 0 0.048 0 0.075 0 38.108 21.068 71.295 52.192 88.548l0.518 0.264 0.906 0.487 0.89 0.537 112.808 70.807c22.055 12.271 36.73 35.441 36.73 62.038 0 0.026 0 0.052 0 0.078v-0.004 60.584l-9.468 9.904c-24.244 25.359-42.787 56.38-53.436 90.866l-0.433 1.629-2.82 10.66-8.511 7c-6.060 4.96-9.899 12.439-9.904 20.815v59.007c0.605 6.644 3.588 12.494 8.081 16.777l0.011 0.010 8.981 9.787v90.196c1.326 15.729 15.377 120.866 153.6 120.866 1.911 0.074 4.155 0.116 6.409 0.116 35.659 0 68.862-10.517 96.676-28.619l-0.686 0.419v-80.795c-10.594-11.807-17.073-27.495-17.073-44.697 0-0.073 0-0.146 0-0.219v0.011-68.323c0-0.016 0-0.034 0-0.053 0-21.397 9.899-40.482 25.368-52.925l0.132-0.102c0.101-0.403 0.235-0.739 0.319-1.125 0.94-3.626 1.981-7.369 3.357-11.751l1.259-4.079c0.185-0.621 0.403-1.158 0.604-1.679 1.074-3.357 2.199-6.614 3.357-9.871 0.537-1.511 1.024-3.122 1.561-4.583 1.024-2.77 1.981-5.187 2.954-7.571 0.823-2.048 1.679-4.046 2.501-6.043 0.638-1.494 1.276-3.072 1.93-4.532v0c0.302-0.722 0.638-1.427 0.94-2.149v0c0.403-0.94 0.856-1.779 1.276-2.719 1.679-3.693 3.357-7.252 5.036-10.71 0.269-0.554 0.554-1.192 0.823-1.679 0.436-0.89 0.906-1.679 1.343-2.501 2.686-5.238 5.305-10.072 7.94-14.772l0.856-1.477c8.027-13.996 15.879-25.832 24.398-37.136l-0.645 0.893v-56.488c-0.001-17.001-9.393-31.808-23.271-39.516l-0.231-0.118-152.257-83.129c-4.214-2.3-8.091-5.036-12.036-7.672-1.847-1.225-3.844-2.266-5.607-3.576-0.302-0.218-0.571-0.52-0.873-0.739-37.635-28.388-61.709-73.020-61.709-123.274 0-0.009 0-0.018 0-0.027v0.001-38.224z" />
<glyph unicode="&#xe909;" glyph-name="ebook-3" d="M97.611 344.094c0.773 4.316 1.216 9.283 1.216 14.354 0 23.175-9.236 44.192-24.228 59.573l0.018-0.018c-18.522 19.687-44.167 32.489-72.798 34.273l-0.313 0.016c-0.973-5.141-1.529-11.054-1.529-17.098 0-24.1 8.846-46.133 23.467-63.031l-0.103 0.122c17.15-17.55 41.058-28.433 67.508-28.433 2.38 0 4.739 0.088 7.074 0.261l-0.312-0.019zM593.047 311.928v363.716h-83.893c-0.218-13.985-4.105-27.017-10.738-38.233l0.197 0.36c-6.138-10.058-14.291-18.303-23.953-24.366l-0.307-0.18c-9.568-5.919-20.712-10.444-32.603-12.937l-0.677-0.119c-10.036-2.212-21.563-3.48-33.386-3.48-1.567 0-3.129 0.022-4.686 0.067l0.229-0.005v-75.294h83.411v-209.498h106.376zM266.993 503.913c-2.619 13.677-4.146 29.433-4.201 45.536v0.047c-0.007 0.705-0.011 1.538-0.011 2.372 0 138.589 110.89 251.278 248.783 254.181l0.271 0.005v-0.136c138.414-2.633 249.611-115.458 249.611-254.255 0-0.82-0.004-1.639-0.012-2.457l0.001 0.125c-0.074-16.159-1.583-31.916-4.406-47.213l0.25 1.63h63.051c2.118 13.605 3.394 29.389 3.523 45.446l0.001 0.137c0.008 0.85 0.013 1.854 0.013 2.859 0 173.224-138.716 314.049-311.126 317.452l-0.318 0.005v0.211c-172.987-3.057-312.047-144.008-312.047-317.439 0-1.028 0.005-2.054 0.015-3.080l-0.001 0.157c0.13-16.195 1.417-31.977 3.784-47.403l-0.23 1.82h63.051zM168.824 351.624c23.295 14.782 39.701 38.638 44.287 66.478l0.077 0.564c0.325 2.962 0.51 6.397 0.51 9.875 0 26.644-10.872 50.75-28.421 68.122l-0.008 0.008c-21.093-17.6-35.632-42.43-39.801-70.639l-0.075-0.619c-0.743-4.219-1.168-9.077-1.168-14.034 0-23.308 9.395-44.421 24.606-59.76l-0.006 0.006zM193.536 306.281c-0.041-0.986-0.065-2.144-0.065-3.307 0-27.044 12.73-51.114 32.524-66.546l0.188-0.141c20.956 17.476 34.471 43.261 35.444 72.226l0.004 0.162c-0.747 29.993-15.252 56.451-37.417 73.394l-0.23 0.169c-18.515-19.879-30.018-46.504-30.448-75.811l-0.001-0.086zM295.785 315.091c-14.704-19.072-23.567-43.305-23.567-69.609 0-3.135 0.126-6.241 0.373-9.312l-0.026 0.405c1.513-28 16.517-52.196 38.577-66.359l0.335-0.201c17.788 17.814 28.788 42.41 28.788 69.575 0 2.070-0.064 4.126-0.19 6.164l0.014-0.28c-3.56 29.539-20.22 54.574-43.907 69.445l-0.396 0.232zM418.47 112.791c7.539 13.671 11.976 29.966 11.976 47.298 0 11.983-2.121 23.471-6.007 34.108l0.221-0.69c-11.411 26.357-33.878 46.077-61.39 53.519l-0.653 0.15c-4.817-12.229-7.609-26.393-7.609-41.209 0-14.697 2.747-28.752 7.757-41.68l-0.268 0.788c9.102-25.505 29.705-44.878 55.394-52.1l0.58-0.139zM112.866 445.756c14.045 15.106 22.665 35.424 22.665 57.754 0 5.936-0.609 11.73-1.768 17.322l0.095-0.55c-5.132 28.596-20.415 52.942-41.912 69.683l-0.253 0.19c-16.208-17.151-26.172-40.351-26.172-65.879 0-4.595 0.323-9.115 0.947-13.538l-0.059 0.509c5.55-28.124 22.631-51.447 46.004-65.244l0.452-0.247zM137.035 254.434c-3.493 27.615-19.897 50.773-42.877 63.509l-0.432 0.22c-15.327 8.803-33.698 13.995-53.281 13.995-9.369 0-18.46-1.188-27.132-3.422l0.752 0.164c3.441-29.549 19.946-54.65 43.497-69.689l0.384-0.229c12.838-7.064 28.137-11.22 44.406-11.22 12.493 0 24.414 2.451 35.308 6.897l-0.625-0.225zM206.14 175.541c-9.241 25.457-29.825 44.798-55.477 52.14l-0.587 0.144c-9.115 2.76-19.591 4.349-30.438 4.349-18.103 0-35.173-4.426-50.185-12.254l0.601 0.285c9.613-27.318 30.684-48.473 57.289-57.997l0.657-0.205c7.355-2.068 15.801-3.256 24.524-3.256 20.061 0 38.654 6.285 53.917 16.994l-0.301-0.2zM283.211 119.507c-15.107 19.874-38.762 32.575-65.383 32.575-1.256 0-2.505-0.028-3.748-0.084l0.176 0.006c-28.973-0.97-54.957-13.017-74.001-32.017l0.002 0.002c16.657-22.395 42.815-36.917 72.392-37.555l0.101-0.002c28.739 1.55 53.899 15.648 70.282 36.869l0.164 0.221zM316.175 96.632c-28.453-4.55-52.802-19.402-69.578-40.536l-0.175-0.228c16.833-17.81 40.621-28.897 66.997-28.897 3.309 0 6.578 0.175 9.798 0.515l-0.401-0.034c28.069 5.096 51.453 21.855 65.34 44.97l0.241 0.432c-14.816 15.379-35.589 24.931-58.593 24.931-4.82 0-9.542-0.419-14.132-1.224l0.488 0.071zM128.166 422.581l-22.197 0.798c-0.090-2.5-4.518-248.772 359.8-357.933l6.249 21.82c-346.82 103.921-344.154 325.888-343.853 335.315zM926.615 344.004c2.089-0.165 4.524-0.259 6.98-0.259 26.375 0 50.214 10.861 67.287 28.355l0.018 0.019c14.47 16.774 23.283 38.782 23.283 62.849 0 6.065-0.56 12-1.63 17.754l0.092-0.596c-28.906-1.805-54.517-14.588-72.968-34.188l-0.052-0.056c-14.987-15.334-24.234-36.333-24.234-59.493 0-5.082 0.445-10.061 1.299-14.898l-0.075 0.512zM811.023 418.56c4.654-28.396 21.042-52.25 43.923-66.807l0.395-0.235c15.203 15.339 24.597 36.457 24.597 59.769 0 4.952-0.424 9.804-1.237 14.524l0.072-0.505c-4.213 28.843-18.753 53.691-39.679 71.141l-0.182 0.147c-17.54-17.395-28.399-41.505-28.399-68.15 0-3.482 0.185-6.92 0.547-10.305l-0.036 0.421zM762.639 308.631c0.953-29.157 14.487-54.972 35.32-72.32l0.159-0.128c19.966 15.573 32.683 39.634 32.683 66.664 0 1.171-0.024 2.336-0.071 3.495l0.005-0.166c-0.392 29.427-11.877 56.098-30.454 76.088l0.065-0.071c-22.393-17.14-36.908-43.6-37.705-73.48l-0.003-0.127zM684.168 245.384c-0.111-1.748-0.174-3.792-0.174-5.849 0-27.176 10.999-51.783 28.787-69.612l-0.002 0.002c22.42 14.348 37.444 38.55 38.948 66.347l0.009 0.213c0.214 2.626 0.336 5.685 0.336 8.773 0 26.379-8.893 50.682-23.845 70.072l0.198-0.268c-24.102-15.12-40.758-40.203-44.215-69.334l-0.043-0.448zM599.627 193.446c-3.675-9.959-5.801-21.461-5.801-33.459 0-17.309 4.425-33.585 12.205-47.757l-0.26 0.516c26.268 7.356 46.885 26.685 55.882 51.573l0.182 0.575c4.73 12.144 7.47 26.202 7.47 40.899 0 14.817-2.785 28.983-7.861 42.004l0.27-0.788c-28.173-7.599-50.65-27.315-61.854-53.067l-0.234-0.603zM957.862 511.187c0.558 3.89 0.877 8.382 0.877 12.949 0 25.564-9.989 48.796-26.278 66.003l0.042-0.044c-21.746-16.947-37.027-41.3-42.062-69.215l-0.103-0.688c-1.043-4.999-1.641-10.744-1.641-16.629 0-22.382 8.642-42.745 22.771-57.934l-0.048 0.052c23.799 14.024 40.868 37.305 46.339 64.768l0.103 0.618zM930.515 317.967c-23.406-12.96-39.805-36.116-43.251-63.312l-0.043-0.417c10.287-4.23 22.228-6.686 34.742-6.686 16.268 0 31.566 4.15 44.894 11.448l-0.487-0.245c23.912 15.292 40.399 40.39 43.809 69.486l0.043 0.448c-7.915 2.059-17.002 3.24-26.365 3.24-19.6 0-37.99-5.179-53.877-14.244l0.535 0.281zM874.195 227.614c-26.235-7.476-46.819-26.806-55.88-51.676l-0.184-0.578c14.418-10.883 32.639-17.431 52.39-17.431 39.241 0 72.445 25.847 83.516 61.445l0.166 0.62c-14.425 7.566-31.515 12.006-49.642 12.006-10.815 0-21.261-1.58-31.119-4.523l0.769 0.197zM809.984 151.778c-1.1 0.053-2.388 0.083-3.684 0.083-26.574 0-50.186-12.686-65.108-32.333l-0.147-0.202c16.549-21.436 41.708-35.529 70.205-37.065l0.24-0.010c29.675 0.656 55.823 15.193 72.287 37.354l0.176 0.248c-19.039 18.977-45.012 31.008-73.789 31.965l-0.18 0.005zM708.111 96.437c-4.095 0.731-8.809 1.149-13.621 1.149-23.038 0-43.839-9.581-58.635-24.975l-0.026-0.027c14.139-23.537 37.527-40.286 65.012-45.284l0.584-0.088c2.815-0.305 6.079-0.479 9.385-0.479 26.38 0 50.17 11.085 66.968 28.852l0.041 0.044c-16.922 21.395-41.258 36.278-69.074 40.77l-0.634 0.084zM918.317 423.213l-22.182-0.768c0.286-9.412 2.921-231.394-343.853-335.345l6.234-21.82c364.258 109.176 359.861 355.464 359.8 357.903z" />
<glyph unicode="&#xe90a;" glyph-name="education-1" d="M1008.947 16.555h-33.058v408.951h33.058c0.021 0 0.046 0 0.071 0 5.583 0 10.457 3.032 13.066 7.539l0.039 0.073c1.155 2.024 1.836 4.449 1.836 7.032 0 2.92-0.87 5.636-2.364 7.904l0.033-0.054-112.213 172.254c-2.743 4.137-7.379 6.827-12.643 6.827-0.013 0-0.026 0-0.039 0h-298.375l-71.339 69.632v57.515h145.289c0.010 0 0.022 0 0.034 0 5.658 0 10.589 3.115 13.171 7.723l0.039 0.076c1.115 1.996 1.771 4.379 1.771 6.916 0 3.041-0.943 5.861-2.553 8.185l0.031-0.048-26.505 38.775 26.505 38.827c1.582 2.277 2.527 5.101 2.527 8.145 0 2.54-0.658 4.927-1.814 6.998l0.037-0.073c-2.629 4.656-7.544 7.748-13.182 7.748-0.028 0-0.055 0-0.083 0h-145.267v16.623c-0.281 8.083-6.901 14.529-15.027 14.529s-14.746-6.446-15.026-14.504l-0.001-0.026v-197.41l-71.356-69.666h-298.377c-0.011 0-0.024 0-0.037 0-5.264 0-9.9-2.69-12.608-6.771l-0.035-0.056-112.213-172.22c-1.47-2.22-2.346-4.944-2.346-7.874 0-2.594 0.687-5.028 1.888-7.13l-0.037 0.071c2.648-4.58 7.522-7.612 13.105-7.612 0.025 0 0.050 0 0.074 0h33.054v-408.9h-33.058c-8.106 0-14.677-6.571-14.677-14.677s6.571-14.677 14.677-14.677h993.929c8.106 0 14.677 6.571 14.677 14.677s-6.571 14.677-14.677 14.677v0zM888.474 597.692l93.099-142.848h-206.865l-146.278 142.848h260.045zM644.215 848.145l-16.486-24.149c-1.58-2.277-2.525-5.098-2.525-8.141s0.944-5.864 2.556-8.188l-0.031 0.048 16.486-24.149h-117.197v64.58h117.197zM135.475 597.692h260.062l-146.364-142.865h-206.78zM78.131 425.506h177.34c0.222-0.013 0.481-0.021 0.742-0.021s0.521 0.008 0.778 0.022l-0.036-0.002h0.631l0.819 0.119 0.717 0.171 0.7 0.188 0.7 0.239 0.683 0.239 0.631 0.29 0.7 0.324 0.597 0.341 0.666 0.393 0.649 0.478 0.529 0.393c0.406 0.323 0.768 0.641 1.113 0.976l-0.004-0.003 245.914 240.213 245.845-240.060c0.358-0.341 0.717-0.666 1.109-0.99l0.512-0.375c0.222-0.154 0.427-0.324 0.649-0.478l0.666-0.444 0.614-0.341c0.222-0.119 0.461-0.205 0.683-0.324l0.649-0.29 0.683-0.239 0.7-0.239 0.7-0.171 0.734-0.171 0.751-0.085 0.649-0.085c0.222-0.012 0.481-0.019 0.742-0.019s0.521 0.007 0.778 0.021l-0.036-0.002h177.391v-409.020h-322.56v204.459c-0.287 25.512-21.036 46.083-46.589 46.083-0.199 0-0.398-0.001-0.596-0.004h-128.209c-0.153 0.002-0.334 0.003-0.515 0.003-25.553 0-46.301-20.571-46.589-46.056v-204.486h-322.628v408.951zM593.135 204.39h-162.304v16.623c0.124 9.208 7.618 16.624 16.843 16.624 0.079 0 0.157-0.001 0.235-0.002h128.244c0.061 0.001 0.134 0.001 0.206 0.001 9.229 0 16.726-7.414 16.86-16.612v-16.636zM430.814 175.036h66.133v-158.481h-66.116v158.498zM527.002 175.036h66.133v-158.481h-66.116v158.498zM512 315.938c58.868 1.451 106.035 49.516 106.035 108.598 0 59.994-48.635 108.629-108.629 108.629s-108.629-48.635-108.629-108.629c0-0.001 0-0.002 0-0.003v0c0.815-60.152 49.768-108.602 110.036-108.602 0.417 0 0.834 0.002 1.251 0.007l-0.063-0.001zM512 503.774c42.967-1.050 77.397-36.13 77.397-79.252 0-43.782-35.492-79.275-79.275-79.275s-79.275 35.492-79.275 79.275c0 0.004 0 0.008 0 0.013v-0.001c0.604 43.894 36.328 79.245 80.309 79.245 0.297 0 0.593-0.002 0.889-0.005h-0.045zM512 409.907c0.051-0.001 0.111-0.001 0.172-0.001 8.144 0 14.759 6.549 14.864 14.668v46.909c-0.281 8.083-6.901 14.529-15.027 14.529s-14.746-6.446-15.026-14.504l-0.001-0.026v-32.29h-33.092c-8.106 0-14.677-6.571-14.677-14.677s6.571-14.677 14.677-14.677h48.111zM351.676 188.74h-80.213c-0.051 0.001-0.111 0.001-0.172 0.001-8.144 0-14.759-6.549-14.864-14.668v-93.877c0.105-8.12 6.712-14.661 14.847-14.661 0.066 0 0.133 0 0.199 0.001h80.203c0.056-0.001 0.122-0.001 0.189-0.001 8.135 0 14.742 6.542 14.847 14.652v93.877c-0.105 8.129-6.72 14.678-14.864 14.678-0.060 0-0.121 0-0.181-0.001h0.009zM336.64 159.386v-17.613h-50.091v17.63h50.091zM286.549 94.822v17.613h50.091v-17.613h-50.091zM207.394 188.689h-80.213c-0.051 0.001-0.111 0.001-0.172 0.001-8.144 0-14.759-6.549-14.864-14.668v-93.877c0.105-8.12 6.712-14.661 14.847-14.661 0.066 0 0.133 0 0.199 0.001h80.203c0.056-0.001 0.122-0.001 0.189-0.001 8.135 0 14.742 6.542 14.847 14.652v93.877c-0.077 8.151-6.702 14.73-14.864 14.73-0.060 0-0.12 0-0.18-0.001h0.009zM192.358 159.334v-17.613h-50.091v17.681h50.091zM142.268 94.822v17.613h50.091v-17.613h-50.091zM346.658 376.593h-70.178c-0.061 0.001-0.134 0.001-0.206 0.001-10.863 0-19.686-8.734-19.83-19.563v-104.701c0.096-8.127 6.706-14.679 14.847-14.679 0.066 0 0.133 0 0.199 0.001h80.203c0.051-0.001 0.111-0.001 0.172-0.001 8.144 0 14.759 6.549 14.864 14.668v104.697c-0.144 10.843-8.967 19.577-19.83 19.577-0.085 0-0.169-0.001-0.253-0.002h0.013zM336.64 347.307v-33.263h-50.091v33.263h50.091zM286.549 267.093v17.527h50.091v-17.527h-50.091zM202.394 376.661h-70.144c-0.061 0.001-0.134 0.001-0.206 0.001-10.863 0-19.686-8.734-19.83-19.563v-104.701c0.096-8.127 6.706-14.679 14.847-14.679 0.066 0 0.133 0 0.199 0.001h80.203c0.056-0.001 0.122-0.001 0.189-0.001 8.141 0 14.751 6.551 14.847 14.669v104.628c-0.143 10.843-8.966 19.578-19.83 19.578-0.103 0-0.205-0.001-0.307-0.002h0.015zM192.358 347.307v-33.263h-50.091v33.263h50.091zM142.268 267.093v17.527h50.091v-17.527h-50.091zM816.572 65.553h80.213c0.056-0.001 0.122-0.001 0.189-0.001 8.135 0 14.742 6.542 14.847 14.652v93.877c-0.105 8.129-6.72 14.678-14.864 14.678-0.060 0-0.121 0-0.181-0.001h-80.204c-0.051 0.001-0.111 0.001-0.172 0.001-8.144 0-14.759-6.549-14.864-14.668v-93.877c0.067-8.149 6.689-14.73 14.848-14.73 0.066 0 0.132 0 0.198 0.001h-0.010zM831.607 94.891v17.545h50.108v-17.613h-50.108zM881.715 159.471v-17.613h-50.108v17.545h50.108zM672.307 65.604h80.213c0.056-0.001 0.122-0.001 0.189-0.001 8.135 0 14.742 6.542 14.847 14.652v93.877c-0.105 8.129-6.72 14.678-14.864 14.678-0.060 0-0.121 0-0.181-0.001h-80.204c-0.051 0.001-0.111 0.001-0.172 0.001-8.144 0-14.759-6.549-14.864-14.668v-93.877c0.038-8.171 6.671-14.781 14.848-14.781 0.060 0 0.12 0 0.18 0.001h-0.009zM687.343 94.942v17.493h50.091v-17.613h-50.108zM737.434 159.522v-17.613h-50.108v17.493h50.091zM816.589 237.79h80.213c0.056-0.001 0.122-0.001 0.189-0.001 8.141 0 14.751 6.551 14.847 14.669v104.559c-0.144 10.842-8.967 19.577-19.83 19.577-0.073 0-0.145 0-0.217-0.001h-70.201c-0.061 0.001-0.134 0.001-0.206 0.001-10.863 0-19.686-8.734-19.83-19.563v-104.701c0.105-8.129 6.72-14.678 14.864-14.678 0.054 0 0.109 0 0.163 0.001h-0.008zM831.625 267.145v17.476h50.108v-17.527h-50.125zM881.732 347.358v-33.263h-50.125v33.212h50.108zM672.324 237.79h80.213c0.056-0.001 0.122-0.001 0.189-0.001 8.141 0 14.751 6.551 14.847 14.669v104.559c-0.144 10.843-8.967 19.577-19.83 19.577-0.079 0-0.157 0-0.235-0.001h-70.132c-0.061 0.001-0.134 0.001-0.206 0.001-10.863 0-19.686-8.734-19.83-19.563v-104.701c0.096-8.127 6.707-14.678 14.847-14.678 0.036 0 0.073 0 0.109 0h-0.006zM687.36 267.145v17.476h50.091v-17.527h-50.125zM737.451 347.358v-33.263h-50.125v33.212h50.091z" />
<glyph unicode="&#xe90b;" glyph-name="education-2" d="M944.621 107.918l-150.016 262.903c14.017 7.045 23.467 21.312 23.467 37.786 0 1.298-0.059 2.582-0.173 3.849l0.012-0.163-11.15 93.032 63.848 66.75c6.954 7.412 11.225 17.413 11.225 28.411 0 10.42-3.834 19.945-10.169 27.24l0.043-0.051-63.924 68.741 13.179 94.056c0.104 1.105 0.163 2.39 0.163 3.689 0 19.827-13.793 36.432-32.307 40.743l-0.283 0.055-92.236 18.204-44.563 81.92c-6.618 13.427-20.208 22.502-35.918 22.502-5.724 0-11.166-1.205-16.088-3.374l0.256 0.101h-1.024l-85.144-39.443-83.115 40.429c-5.442 3.004-11.928 4.771-18.828 4.771-15.031 0-28.103-8.387-34.791-20.737l-0.103-0.209-45.606-81.92-92.236-16.175c-19.335-3.783-33.724-20.59-33.724-40.757 0-1.675 0.099-3.327 0.292-4.95l-0.019 0.196 11.15-93.032-63.829-66.75c-6.929-7.407-11.184-17.39-11.184-28.367 0-10.449 3.856-19.998 10.222-27.301l-0.042 0.050 63.867-68.76-13.236-94.018c-0.101-1.087-0.158-2.35-0.158-3.627 0-17.57 10.861-32.602 26.235-38.751l0.281-0.099-151.021-266.942c-1.671-2.907-2.657-6.392-2.657-10.107s0.986-7.2 2.71-10.208l-0.053 0.1c3.603-5.923 9.934-9.875 17.205-10.106l0.033-0.001h162.095l73.956-128.436c3.603-5.923 9.934-9.875 17.205-10.106l0.033-0.001c0.022 0 0.048 0 0.074 0 7.345 0 13.748 4.035 17.113 10.009l0.051 0.098 145.048 246.632 144.953-249.761c3.619-5.893 9.948-9.816 17.207-10.031l0.031-0.001c0.022 0 0.048 0 0.074 0 7.345 0 13.748 4.035 17.113 10.009l0.051 0.098 73.956 131.47h162.171c0.024 0 0.053 0 0.082 0 7.353 0 13.761 4.043 17.123 10.028l0.051 0.099c2.452 2.889 3.943 6.66 3.943 10.78 0 3.525-1.092 6.795-2.956 9.49l0.036-0.056zM349.62-0.284l-62.843 108.203c-3.603 5.923-9.934 9.875-17.205 10.106l-0.033 0.001h-139.871l139.871 246.727 57.78-10.107 44.601-81.901c6.594-13.421 20.165-22.495 35.855-22.495 5.727 0 11.172 1.209 16.093 3.386l-0.254-0.1h1.005l41.567 19.209 20.271-35.385zM408.405 289.849h-1.005l-44.601 84.006c-5.844 10.37-16.156 17.63-28.255 19.19l-0.19 0.020-93.184 17.199 13.179 93.032c0.338 1.937 0.531 4.166 0.531 6.441 0 10.432-4.064 19.916-10.695 26.953l0.018-0.020-62.843 68.722 63.867 66.731c7.177 6.911 11.634 16.602 11.634 27.334 0 2.133-0.176 4.225-0.515 6.262l0.030-0.221-11.169 92.046c0.080 0.81 0.458 1.519 1.021 2.027l0.003 0.002 92.236 16.175c12.281 2.279 22.464 9.765 28.339 20.033l0.106 0.201 45.606 81.901 83.115-40.448c5.282-2.866 11.566-4.551 18.242-4.551s12.96 1.685 18.448 4.653l-0.206-0.102 84.139 38.419h0.967l44.601-83.93c5.636-10.119 15.504-17.299 27.146-19.18l0.218-0.029 92.236-18.204-13.179-93.032c-0.338-1.937-0.531-4.166-0.531-6.441 0-10.432 4.064-19.916 10.695-26.953l-0.018 0.020 63.848-68.76-64.872-66.731c-7.177-6.911-11.634-16.602-11.634-27.334 0-2.133 0.176-4.225 0.515-6.262l-0.030 0.221 11.15-92.956-91.231-15.17c-12.282-2.276-22.466-9.763-28.339-20.032l-0.106-0.201-45.606-81.901-83.115 40.448c-5.283 2.865-11.566 4.549-18.242 4.549s-12.96-1.684-18.448-4.65l0.206 0.102zM753.038 118.044c-0.022 0-0.048 0-0.074 0-7.345 0-13.748-4.035-17.113-10.009l-0.051-0.098-62.824-111.256-142.924 246.727c-0.776 2.773-2.183 5.156-4.061 7.076l0.003-0.003-22.3 39.443 7.092 3.034 83.115-40.448c5.254-2.564 11.431-4.063 17.958-4.063 15.107 0 28.339 8.030 35.659 20.054l0.104 0.184 45.606 81.901 60.909 11.131 138.79-243.674h-139.89zM713.519 603.496c0 0.118 0 0.258 0 0.398 0 111.966-90.767 202.733-202.733 202.733s-202.733-90.767-202.733-202.733c0-111.966 90.766-202.733 202.733-202.733v0c111.749 0.193 202.313 90.618 202.733 202.295v0.040zM510.805 441.704c-89.192 0.216-161.413 72.57-161.413 161.792 0 89.355 72.437 161.792 161.792 161.792s161.792-72.436 161.792-161.791v0c-0.323-89.384-72.782-161.737-162.176-161.887h-0.014z" />
<glyph unicode="&#xe90c;" glyph-name="education-3" d="M97.621 345.104c0.772 4.286 1.214 9.219 1.214 14.255 0 23.040-9.241 43.923-24.218 59.143l0.011-0.011c-18.572 19.542-44.19 32.235-72.766 33.994l-0.311 0.015c-0.986-5.143-1.55-11.059-1.55-17.106 0-23.903 8.814-45.748 23.369-62.462l-0.098 0.115c17.194-17.411 41.063-28.194 67.451-28.194 2.427 0 4.833 0.091 7.214 0.27l-0.317-0.019zM593.051 313.158v361.1h-83.89c-0.204-13.89-4.074-26.835-10.683-37.962l0.194 0.353c-6.147-9.994-14.295-18.182-23.94-24.194l-0.31-0.18c-9.576-5.882-20.726-10.378-32.618-12.853l-0.678-0.118c-10.030-2.2-21.55-3.459-33.365-3.459-1.574 0-3.143 0.022-4.706 0.067l0.23-0.005v-74.705h83.409v-208.058h106.372zM267 503.746c-2.677 13.846-4.209 29.77-4.209 46.051 0 138.542 110.905 251.18 248.777 253.976l0.261 0.004v-0.155c138.306-2.113 249.612-114.725 249.612-253.335 0-0.512-0.002-1.023-0.005-1.534v0.079c-0.076-16.041-1.585-31.679-4.407-46.855l0.249 1.613h63.054c2.117 13.504 3.393 29.169 3.521 45.107l0.001 0.136c0.003 0.532 0.005 1.161 0.005 1.791 0 172.987-138.851 313.543-311.182 316.297l-0.259 0.003v0.186c-172.842-2.412-312.030-143.091-312.030-316.278 0-0.627 0.002-1.253 0.005-1.878v0.096c0.129-16.084 1.416-31.758 3.782-47.075l-0.229 1.802h63.054zM168.82 352.597c23.245 14.626 39.643 38.317 44.279 65.994l0.078 0.566c0.319 2.921 0.501 6.308 0.501 9.737 0 26.514-10.878 50.487-28.414 67.7l-0.014 0.014c-21.056-17.441-35.588-42.112-39.782-70.162l-0.076-0.619c-0.735-4.171-1.154-8.974-1.154-13.875 0-23.179 9.394-44.165 24.583-59.357v0zM193.536 307.603c-0.039-0.954-0.061-2.073-0.061-3.197 0-26.911 12.709-50.853 32.452-66.153l0.191-0.142c20.913 17.306 34.422 42.921 35.432 71.715l0.005 0.167c-0.796 29.831-15.309 56.115-37.435 72.874l-0.236 0.171c-18.474-19.735-29.947-46.223-30.347-75.386l-0.001-0.079zM295.796 316.354c-14.73-18.928-23.615-43.037-23.615-69.222 0-3.098 0.124-6.168 0.369-9.204l-0.026 0.4c1.566-27.845 16.567-51.877 38.574-65.878l0.338-0.201c17.786 17.66 28.796 42.124 28.796 69.16 0 2.027-0.062 4.040-0.184 6.036l0.013-0.274c-3.618 29.362-20.262 54.215-43.881 68.919l-0.4 0.232zM418.49 115.479c7.548 13.564 11.992 29.751 11.992 46.976 0 11.899-2.121 23.303-6.004 33.855l0.219-0.68c-11.485 26.221-33.946 45.806-61.41 53.147l-0.65 0.148c-4.818-12.141-7.612-26.208-7.612-40.928 0-14.598 2.748-28.554 7.754-41.379l-0.266 0.775c9.161-25.392 29.747-44.655 55.385-51.807l0.578-0.138zM112.857 446.014c14.042 14.972 22.667 35.17 22.667 57.383 0 5.879-0.604 11.616-1.754 17.154l0.094-0.544c-5.166 28.413-20.424 52.581-41.85 69.161l-0.258 0.192c-16.233-17.006-26.223-40.094-26.223-65.516 0-4.527 0.317-8.98 0.929-13.338l-0.058 0.502c5.609-27.956 22.682-51.107 45.996-64.747l0.456-0.246zM137.030 256.093c-3.547 27.455-19.953 50.443-42.883 63.006l-0.436 0.219c-15.351 8.738-33.727 13.888-53.305 13.888-9.362 0-18.449-1.178-27.121-3.393l0.756 0.164c3.466-29.398 19.973-54.342 43.488-69.201l0.389-0.229c12.836-6.997 28.113-11.111 44.35-11.111 12.519 0 24.466 2.445 35.391 6.885l-0.63-0.226zM206.134 177.757c-9.291 25.338-29.875 44.554-55.488 51.773l-0.584 0.141c-9.12 2.744-19.601 4.324-30.451 4.324-18.091 0-35.155-4.392-50.186-12.167l0.61 0.287c9.662-27.19 30.738-48.21 57.308-57.592l0.656-0.202c7.377-2.069 15.849-3.259 24.599-3.259 20.012 0 38.57 6.222 53.846 16.837l-0.311-0.204zM283.198 122.135c-15.137 19.747-38.735 32.354-65.277 32.354-1.292 0-2.576-0.030-3.853-0.089l0.181 0.007c-28.939-0.934-54.916-12.891-74.017-31.785l0.010 0.010c16.725-22.255 42.866-36.654 72.394-37.235l0.093-0.001c28.684 1.452 53.841 15.401 70.312 36.468l0.158 0.21zM316.152 99.39c-28.442-4.47-52.81-19.229-69.648-40.275l-0.17-0.22c16.868-17.69 40.616-28.691 66.935-28.691 3.327 0 6.613 0.176 9.85 0.519l-0.403-0.035c28.025 5.010 51.402 21.658 65.343 44.662l0.239 0.425c-14.84 15.278-35.578 24.758-58.53 24.758-4.81 0-9.522-0.416-14.103-1.215l0.488 0.070zM128.171 422.99l-22.202 0.791c-0.093-2.482-4.453-247.001 359.796-355.406l6.206 21.721c-346.779 103.145-344.095 323.537-343.8 332.893zM926.627 344.979c2.748-0.301 5.935-0.473 9.162-0.473 49.099 0 88.902 39.803 88.902 88.902 0 6.709-0.743 13.245-2.152 19.529l0.112-0.593c-28.873-1.783-54.475-14.481-72.985-33.977l-0.045-0.048c-14.98-15.179-24.232-36.043-24.232-59.067 0-5.048 0.445-9.992 1.297-14.796l-0.075 0.508zM811.024 419.002c4.715-28.243 21.112-51.934 43.958-66.325l0.4-0.235c15.195 15.2 24.592 36.195 24.592 59.386 0 4.89-0.418 9.683-1.22 14.345l0.071-0.499c-4.249 28.67-18.787 53.342-39.67 70.613l-0.189 0.152c-17.556-17.243-28.437-41.232-28.437-67.762 0-3.407 0.179-6.773 0.529-10.087l-0.035 0.413zM762.632 309.807c0.997-28.973 14.518-54.6 35.288-71.766l0.164-0.132c19.934 15.436 32.644 39.374 32.644 66.281 0 1.129-0.022 2.254-0.067 3.372l0.005-0.161c-0.422 29.247-11.909 55.733-30.452 75.528l0.058-0.062c-22.32-16.967-36.808-43.24-37.637-72.929l-0.003-0.132zM684.218 246.939c-0.107-1.708-0.167-3.704-0.167-5.714 0-27.051 11.008-51.53 28.788-69.204l0.005-0.005c22.373 14.19 37.395 38.234 38.949 65.876l0.010 0.218c0.213 2.609 0.335 5.647 0.335 8.713 0 26.213-8.882 50.351-23.8 69.57l0.193-0.258c-24.055-14.925-40.721-39.806-44.266-68.742l-0.045-0.455zM599.676 195.367c-3.657-9.865-5.773-21.261-5.773-33.151 0-17.221 4.439-33.406 12.235-47.472l-0.256 0.503c26.236 7.287 46.85 26.532 55.889 51.341l0.183 0.573c4.728 12.052 7.468 26.008 7.468 40.604 0 14.718-2.786 28.785-7.86 41.703l0.268-0.775c-28.159-7.484-50.664-27.074-61.965-52.713l-0.235-0.597zM957.859 510.852c0.549 3.838 0.863 8.271 0.863 12.777 0 25.447-10.005 48.557-26.296 65.611l0.035-0.037c-21.668-16.783-36.917-40.946-41.988-68.665l-0.104-0.688c-1.043-4.97-1.64-10.68-1.64-16.53 0-22.232 8.623-42.45 22.706-57.493l-0.043 0.047c23.776 13.876 40.855 37.024 46.364 64.36l0.104 0.617zM930.521 319.116c-23.364-12.796-39.761-35.802-43.243-62.853l-0.044-0.418c10.346-4.611 22.42-7.296 35.12-7.296 46.257 0 84.194 35.62 87.879 80.927l0.021 0.314c-7.909 2.042-16.989 3.214-26.342 3.214-19.607 0-38.012-5.15-53.934-14.172l0.544 0.284zM874.201 229.454c-26.195-7.346-46.78-26.553-55.887-51.308l-0.185-0.575c14.415-10.813 32.604-17.315 52.311-17.315 39.151 0 72.309 25.662 83.571 61.083l0.17 0.621c-14.395 7.46-31.425 11.835-49.477 11.835-10.869 0-21.368-1.586-31.278-4.539l0.774 0.198zM809.984 154.143c-1.126 0.055-2.446 0.087-3.773 0.087-26.498 0-50.056-12.591-65.017-32.116l-0.144-0.196c16.602-21.32 41.747-35.315 70.204-36.808l0.234-0.010c29.621 0.582 55.762 14.981 72.316 36.999l0.171 0.238c-19.078 18.901-45.052 30.87-73.816 31.802l-0.176 0.005zM708.112 99.204c-4.095 0.728-8.81 1.145-13.622 1.145-22.991 0-43.761-9.505-58.597-24.8l-0.020-0.021c14.201-23.395 37.581-40.010 65.020-44.908l0.578-0.086c2.833-0.308 6.119-0.484 9.447-0.484 26.318 0 50.067 11 66.9 28.654l0.035 0.037c-16.988 21.247-41.329 35.994-69.115 40.382l-0.626 0.081zM918.311 423.657l-22.187-0.76c0.279-9.309 2.932-229.748-343.847-332.986l6.206-21.721c364.296 108.42 359.889 352.97 359.827 355.468z" />
<glyph unicode="&#xe90d;" d="M1024 448c0-187.248-100.696-350.984-250.914-439.998-14.394-8.532-29.226-16.376-44.496-23.49-65.524-30.54-138.6-47.604-215.68-47.604-112.524 0-216.556 36.36-300.98 97.984-3.234 2.358-6.446 4.756-9.616 7.198-46.686 35.776-87.010 79.438-119.032 128.982-42.434 65.69-70.2 141.728-78.712 223.504-1.814 17.564-2.752 35.38-2.752 53.424 0 261.658 196.614 477.38 450.178 507.482 19.964 2.4 40.304 3.608 60.914 3.608 62.228 0 121.87-11.118 177.026-31.5 4.714-1.732 9.366-3.526 13.998-5.402l0.020-0.020c24.908-10.014 48.836-21.966 71.594-35.652 148.842-89.326 248.452-252.29 248.452-438.516z" />
<glyph unicode="&#xe90e;" d="M174.92 253.932c4.048-4.046 6.55-9.638 6.55-15.812 0-12.35-9.992-22.342-22.342-22.342h-2.19c-6.174 0-11.766-2.504-15.812-6.55-4.048-4.048-6.55-9.638-6.55-15.812 0-12.328-9.992-22.342-22.342-22.342h-28.956c-42.43 65.688-70.196 141.726-78.708 223.502h102.406c6.174 0 11.766-2.504 15.812-6.55 4.048-4.046 6.55-9.638 6.55-15.792 0-12.35 9.992-22.362 22.342-22.362h7.448c12.35 0 22.342-10.014 22.342-22.342 0-12.35-9.992-22.362-22.342-22.362h-40.97c-6.174 0-11.766-2.504-15.792-6.55-4.048-4.026-6.55-9.616-6.55-15.792 0-12.35 9.992-22.342 22.342-22.342h40.97c6.176-0.004 11.766-2.506 15.792-6.552z" />
<glyph unicode="&#xe90f;" d="M775.546 886.516c-4.068-5.508-10.598-9.054-17.94-9.054h-6.216c-6.174 0-11.766-2.504-15.812-6.55-4.026-4.026-6.53-9.616-6.53-15.792 0-12.35-10.014-22.342-22.362-22.342h-180.51c-6.174 0-11.766 2.504-15.812 6.55-4.026 4.026-6.53 9.616-6.53 15.792 0 12.35 9.992 22.342 22.342 22.342h6.216c6.174 0 11.766 2.504 15.812 6.55 4.026 4.048 6.53 9.638 6.53 15.812 0 12.328-9.992 22.342-22.342 22.342h-60.934c-6.154 0-11.744 2.504-15.792 6.55-4.048 4.048-6.55 9.616-6.55 15.792 0 3.984 1.044 7.74 2.878 10.972 19.964 2.4 40.304 3.608 60.914 3.608 62.228 0 121.87-11.118 177.026-31.5 3.776-3.276 8.658-5.278 13.998-5.402l0.020-0.020c24.908-10.012 48.836-21.964 71.594-35.65z" />
<glyph unicode="&#xe910;" d="M432.382 790.552v0c0 12.344-10.006 22.35-22.35 22.35h-188.344c-12.344 0-22.35-10.006-22.35-22.35v0c0-12.344 10.006-22.35 22.35-22.35h60.922c12.344 0 22.35-10.006 22.35-22.35v0c0-12.344-10.006-22.35-22.35-22.35h-6.21c-12.344 0-22.35-10.006-22.35-22.35v0c0-12.344 10.006-22.35 22.35-22.35h180.514c12.344 0 22.35 10.006 22.35 22.35v0c0 12.344 10.006 22.35 22.35 22.35h6.21c12.344 0 22.35 10.006 22.35 22.35v0c0 12.344-10.006 22.35-22.35 22.35h-53.090c-12.346 0-22.352 10.006-22.352 22.35z" />
<glyph unicode="&#xe911;" d="M762.716 306.938v0c0 12.344 10.006 22.35 22.35 22.35h72.022c12.344 0 22.35 10.006 22.35 22.35v0c0 12.344-10.006 22.35-22.35 22.35h-212.326c-12.344 0-22.35-10.006-22.35-22.35v0c0-12.344-10.006-22.35-22.35-22.35h-72.022c-12.344 0-22.35-10.006-22.35-22.35v0c0-12.344 10.006-22.35 22.35-22.35h106.792c12.344 0 22.35-10.006 22.35-22.35v0c0-12.344 10.006-22.35 22.35-22.35h212.326c12.344 0 22.35 10.006 22.35 22.35v0c0 12.344-10.006 22.35-22.35 22.35h-106.792c-12.344 0-22.35 10.008-22.35 22.35z" />
<glyph unicode="&#xe912;" d="M921.084 491.94h-842.778c-15.746 0-28.51-12.764-28.51-28.51v0c0-15.746 12.764-28.51 28.51-28.51h842.78c15.746 0 28.51 12.764 28.51 28.51v0c0 15.744-12.766 28.51-28.512 28.51z" />
<glyph unicode="&#xe913;" d="M837.818 465.828c102.822 0 186.174 83.354 186.174 186.174s-83.354 186.174-186.174 186.174h-122.030v-372.348h122.030z" />
<glyph unicode="&#xe914;" d="M901.962 652.008c0-102.827-83.357-186.184-186.184-186.184s-186.184 83.357-186.184 186.184c0 102.827 83.357 186.184 186.184 186.184s186.184-83.357 186.184-186.184z" />
<glyph unicode="&#xe915;" d="M715.78 653.834c0-6.258-2.524-11.932-6.634-16.042s-9.784-6.654-16.042-6.654h-263.66c-12.516 0-22.676 10.16-22.676 22.696 0 6.258 2.546 11.932 6.634 16.022 4.11 4.11 9.784 6.654 16.042 6.654h263.66c12.538 0 22.676-10.16 22.676-22.676z" />
<glyph unicode="&#xe916;" d="M715.78 653.834c0-6.258-2.524-11.932-6.634-16.042s-9.784-6.654-16.042-6.654h-263.66c-12.516 0-22.676 10.16-22.676 22.696h309.012z" />
<glyph unicode="&#xe917;" d="M308.204 465.828c102.822 0 186.174 83.354 186.174 186.174s-83.354 186.174-186.174 186.174h-122.030v-372.348h122.030z" />
<glyph unicode="&#xe918;" d="M372.368 652.008c0-102.827-83.357-186.184-186.184-186.184s-186.184 83.357-186.184 186.184c0 102.827 83.357 186.184 186.184 186.184s186.184-83.357 186.184-186.184z" />
<glyph unicode="&#xe919;" d="M773.086 295.59v-287.588c-14.394-8.532-29.226-16.376-44.496-23.49-65.524-30.54-138.6-47.604-215.68-47.604-51.256 0-100.738 7.552-147.424 21.592-55.802 16.772-107.58 42.848-153.556 76.392-3.234 2.358-6.446 4.756-9.616 7.198v253.5h570.772z" />
<glyph unicode="&#xe91a;" d="M365.484 265.258v-306.76c-55.802 16.772-107.58 42.848-153.556 76.392-3.234 2.358-6.446 4.756-9.616 7.198v223.17h163.172z" />
<glyph unicode="&#xe91b;" d="M773.084 295.58c0-106.006-127.777-191.94-285.398-191.94s-285.398 85.934-285.398 191.94c0 106.006 127.777 191.94 285.398 191.94s285.398-85.934 285.398-191.94z" />
<glyph unicode="&#xe91c;" d="M524.512 295.58c0-13.678-16.488-24.766-36.826-24.766s-36.826 11.088-36.826 24.766c0 13.678 16.488 24.766 36.826 24.766s36.826-11.088 36.826-24.766z" />
<glyph unicode="&#xe91d;" d="M487.692 443.71c-96.044 0-181.154-36.492-219.706-87.624 44.656 34.874 113.806 57.724 189.804 57.724 130.952 0 241.584-67.836 241.584-148.132 0-21.404-7.864-41.922-21.876-60.506 32.288 25.214 51.776 56.712 51.776 90.406 0.002 80.298-110.63 148.132-241.582 148.132z" />
<glyph unicode="&#xe91e;" d="M773.086 229.474v-70.218c-15.478-26.18-39.26-50.086-70.488-70.342-57.556-37.342-133.886-57.91-214.908-57.91s-157.332 20.568-214.888 57.91c-31.228 20.256-55.010 44.162-70.488 70.342v70.218c3.276-98.296 130.026-177.61 285.376-177.61s282.12 79.314 285.396 177.61z" />
<glyph unicode="&#xe91f;" d="M773.086 153.68v-70.218c-15.478-26.18-39.26-50.086-70.488-70.342-57.556-37.34-133.886-57.91-214.908-57.91s-157.336 20.568-214.89 57.91c-31.228 20.256-55.010 44.162-70.488 70.342v70.218c3.276-98.296 130.026-177.61 285.376-177.61s282.122 79.314 285.398 177.61z" />
<glyph unicode="&#xe920;" d="M202.31 77.886c0.5-14.832 3.796-29.226 9.616-42.994-3.234 2.358-6.446 4.756-9.616 7.198v35.796z" />
<glyph unicode="&#xe921;" d="M773.086 77.886v-69.884c-14.394-8.532-29.226-16.376-44.496-23.49 27.18 27.1 43.368 59.080 44.496 93.374z" />
<glyph unicode="&#xe922;" d="M209.512 563.88c-61.556 0-111.458 49.902-111.458 111.458 0 24.824 8.126 47.746 21.848 66.27-27.412-20.306-45.184-52.878-45.184-89.61 0-61.556 49.902-111.458 111.458-111.458 36.732 0 69.304 17.776 89.61 45.184-18.528-13.718-41.45-21.844-66.274-21.844z" />
<glyph unicode="&#xe923;" d="M200.516 653.834c0-6.258-2.524-11.932-6.634-16.042s-9.784-6.654-16.042-6.654h-38.946c-12.538 0-22.696 10.16-22.696 22.696 0 6.258 2.546 11.932 6.654 16.022 4.088 4.11 9.762 6.654 16.042 6.654h38.948c12.536 0 22.674-10.16 22.674-22.676z" />
<glyph unicode="&#xe924;" d="M437.368 689.422h-43.048c-7.134 0-13.354 4.854-15.082 11.776l-2.658 10.628c-2.454 9.812 4.97 19.318 15.082 19.318h43.048c7.134 0 13.354-4.854 15.082-11.776l2.658-10.628c2.452-9.812-4.97-19.318-15.082-19.318z" />
<glyph unicode="&#xe925;" d="M976.092 689.422h-43.048c-7.134 0-13.354 4.854-15.082 11.776l-2.658 10.628c-2.454 9.812 4.97 19.318 15.082 19.318h43.048c7.134 0 13.354-4.854 15.082-11.776l2.658-10.628c2.456-9.812-4.966-19.318-15.082-19.318z" />
<glyph unicode="&#xe926;" d="M645.018 306.282c0-19.586-15.878-35.464-35.464-35.464s-35.464 15.878-35.464 35.464c0 19.586 15.878 35.464 35.464 35.464s35.464-15.878 35.464-35.464z" />
<glyph unicode="&#xe927;" d="M550.2 357.746c0-11.76-9.534-21.294-21.294-21.294s-21.294 9.534-21.294 21.294c0 11.76 9.534 21.294 21.294 21.294s21.294-9.534 21.294-21.294z" />
<glyph unicode="&#xe928;" d="M116.198 653.834h84.32c0-6.258-2.524-11.932-6.634-16.042s-9.784-6.654-16.042-6.654h-38.948c-12.538 0-22.696 10.158-22.696 22.696z" />
<glyph unicode="&#xe929;" d="M1024 448c0-124.134-44.178-237.966-117.698-326.594-11.16-13.458-22.966-26.332-35.422-38.556-14.044-13.814-28.86-26.812-44.43-38.912-61.774-48.148-134.876-82.442-214.642-98.22-30.74-6.060-62.464-9.384-94.918-9.696-1.63-0.022-3.26-0.022-4.89-0.022-274.682 0-498.834 216.294-511.436 487.862-0.376 8.004-0.564 16.050-0.564 24.138s0.188 16.134 0.564 24.138c12.602 271.568 236.754 487.862 511.436 487.862 66.414 0 129.86-12.644 188.082-35.632 110.612-43.718 202.376-124.866 259.636-227.808 40.96-73.602 64.282-158.364 64.282-248.56z" />
<glyph unicode="&#xe92a;" d="M394.742 399.726c0-13.332-10.804-24.158-24.138-24.158h-229.334c-6.666 0-12.706 2.696-17.074 7.084-4.368 4.368-7.064 10.408-7.064 17.074 0 13.332-10.826 24.138-24.158 24.138h-92.41c-0.376 8.002-0.564 16.048-0.564 24.136s0.188 16.134 0.564 24.138h54.878c6.666 0 12.686 2.696 17.052 7.064 4.368 4.368 7.084 10.408 7.084 17.074 0 13.332 10.804 24.138 24.138 24.138h229.334c6.666 0 12.706-2.696 17.074-7.064s7.064-10.408 7.064-17.074c0-13.332-10.804-24.138-24.138-24.138h-77.804c-13.332 0-24.138-10.804-24.138-24.138 0-13.332 10.804-24.138 24.138-24.138h115.356c6.666 0 12.706-2.696 17.074-7.064 4.37-4.366 7.066-10.406 7.066-17.072z" />
<glyph unicode="&#xe92b;" d="M582.626 55.92v0.002c0 13.33-10.808 24.14-24.14 24.14h-229.332c-13.33 0-24.14-10.808-24.14-24.14v-0.002c0-13.33 10.808-24.14 24.14-24.14h38.222c13.33 0 24.14-10.808 24.14-24.14v-0.002c0-13.33 10.808-24.14 24.14-24.14h191.112c13.33 0 24.14 10.808 24.14 24.14v0.002c0 13.33-10.808 24.14-24.14 24.14v0c-13.332 0.002-24.142 10.808-24.142 24.14z" />
<glyph unicode="&#xe92c;" d="M864.548 757.746v0c0 13.332-10.808 24.14-24.14 24.14h-8.048c-13.332 0-24.14 10.808-24.14 24.14v0c0 13.332-10.808 24.14-24.14 24.14h-370.15c-13.332 0-24.14-10.808-24.14-24.14v0c0-13.332 10.808-24.14 24.14-24.14h148.864c13.332 0 24.14-10.808 24.14-24.14v0c0-13.332-10.808-24.14-24.14-24.14h-67.8c-13.332 0-24.14-10.808-24.14-24.14v0c0-13.332 10.808-24.14 24.14-24.14h20.482c13.332 0 24.14-10.808 24.14-24.14v0c0-13.332-10.808-24.14-24.14-24.14h-73.384c-13.332 0-24.14-10.808-24.14-24.14v0c0-13.332 10.808-24.14 24.14-24.14h347.66c13.332 0 24.14 10.808 24.14 24.14v0c0 13.332 10.808 24.14 24.14 24.14h2.372c13.332 0 24.14 10.808 24.14 24.14v0c0 13.332-10.808 24.14-24.14 24.14h-44.256c-13.332 0-24.14 10.808-24.14 24.14v0c0 13.332 10.808 24.14 24.14 24.14h44.258c13.334 0 24.142 10.806 24.142 24.14z" />
<glyph unicode="&#xe92d;" d="M284.304 753.058c-35.126 0-63.7 28.576-63.7 63.7 0 7.908 6.412 14.32 14.32 14.32s14.32-6.412 14.32-14.32c0-19.334 15.73-35.062 35.062-35.062s35.062 15.728 35.062 35.062-15.73 35.062-35.062 35.062c-7.908 0-14.32 6.412-14.32 14.32v65.84c0 7.908 6.412 14.32 14.32 14.32s14.32-6.412 14.32-14.32v-53.146c28.252-6.516 49.382-31.876 49.382-62.078-0.004-35.122-28.578-63.698-63.704-63.698z" />
<glyph unicode="&#xe92e;" d="M284.304 710.456c-7.908 0-14.32 6.412-14.32 14.32v75.522c0 7.908 6.412 14.32 14.32 14.32s14.32-6.412 14.32-14.32v-75.524c0-7.908-6.412-14.318-14.32-14.318z" />
<glyph unicode="&#xe92f;" d="M431.55 188.304h-0.024c-28.374-28.374-62.89-46.856-99.282-55.4-12.49-2.95-25.222-4.736-37.978-5.332-3.304-0.154-6.63-0.242-9.958-0.242-3.326 0-6.63 0.088-9.956 0.242-12.754 0.596-25.464 2.378-37.978 5.332-36.392 8.548-70.908 27.006-99.302 55.4-81.308 81.308-81.308 213.146 0 294.476l13.768 13.746c51.348 51.372 80.204 121.024 80.204 193.674v34.21h106.506v-34.21c0-72.65 28.856-142.302 80.228-193.674l13.768-13.746c81.308-81.328 81.308-213.17 0.004-294.476z" />
<glyph unicode="&#xe930;" d="M379.59 348.254c-0.816 37.072-5.412 73.812-13.814 106.204-1.274 4.89-2.634 9.696-4.076 14.378-6.018 19.436-11.786 40.73-18.182 67.062l-30.552 125.722h-57.344l-30.552-125.744c-6.352-26.268-12.142-47.584-18.14-67.040-26.394-85.494-23.532-208.332 6.646-285.738 7.9-20.292 15.444-36.926 22.8-50.196 12.518-2.946 25.224-4.744 37.972-5.328-7.418 8.652-18.912 27-34.084 65.934-28.128 72.098-30.678 186.828-5.976 266.866 6.186 20.042 12.12 41.9 18.62 68.754l25.244 103.862h12.308l25.244-103.862c6.542-26.896 12.434-48.754 18.6-68.754 2.822-9.132 5.288-18.724 7.398-28.652 4.556-21.336 7.46-44.22 8.756-67.542 0.544-9.508 0.816-19.080 0.816-28.652 0-51.66-7.732-103.048-22.926-142.022-15.172-38.932-26.666-57.282-34.084-65.934 12.748 0.586 25.496 2.382 37.972 5.328 7.356 13.27 14.9 29.904 22.8 50.196h-0.020c17.594 45.1 25.912 105.598 24.574 165.158z" />
<glyph unicode="&#xe931;" d="M481.992 270.052c-9.868-29.892-26.676-57.98-50.446-81.746h-0.024c-28.374-28.374-62.89-46.856-99.282-55.4-12.49-2.95-25.222-4.736-37.978-5.332-3.304-0.154-6.63-0.242-9.958-0.242s-6.63 0.088-9.958 0.242c-12.754 0.596-25.464 2.378-37.978 5.332-36.392 8.548-70.908 27.006-99.302 55.4-81.308 81.308-81.308 213.146 0 294.476l13.768 13.746c51.348 51.372 80.204 121.024 80.204 193.674v34.21h106.506v-34.21c0-29.296 4.692-58.088 13.656-85.404-2.468 0.132-4.934 0.198-7.422 0.198-98.070 0-177.592-92.122-177.592-205.744s79.522-205.744 177.592-205.744c55.852-0.006 105.678 29.844 138.214 76.544z" />
<glyph unicode="&#xe932;" d="M364.452 632.994h-164.168c-7.908 0-14.32 6.412-14.32 14.32s6.412 14.32 14.32 14.32h164.168c7.908 0 14.32-6.412 14.32-14.32s-6.412-14.32-14.32-14.32z" />
<glyph unicode="&#xe933;" d="M323.948 929.282h-79.288c-7.908 0-14.32 6.412-14.32 14.32s6.412 14.32 14.32 14.32h79.286c7.908 0 14.32-6.412 14.32-14.32s-6.41-14.32-14.318-14.32z" />
<glyph unicode="&#xe934;" d="M447.55 403.76c0-31.266-25.346-56.612-56.612-56.612s-56.612 25.346-56.612 56.612c0 31.266 25.346 56.612 56.612 56.612s56.612-25.346 56.612-56.612z" />
<glyph unicode="&#xe935;" d="M379.59 348.254c-11.306 2.298-21.378 7.962-29.132 15.924-1.296 23.322-4.2 46.206-8.756 67.542 5.558 9.78 13.96 17.742 24.074 22.736 8.402-32.39 13-69.128 13.814-106.202z" />
<glyph unicode="&#xe936;" d="M939.070 369.758l-32.768-248.35c-92.934-112.096-232.762-183.922-389.412-185.386l-37.7 285.8-1.338 10.198-18.16 137.738h479.378z" />
<glyph unicode="&#xe937;" d="M699.378 369.748v-67.632c0-44.348-35.94-80.288-80.288-80.288h-139.894l-19.504 147.92h239.686z" />
<glyph unicode="&#xe938;" d="M939.062 369.748l-19.504-147.92h-139.894c-44.348 0-80.288 35.94-80.288 80.288v67.632h239.686z" />
<glyph unicode="&#xe939;" d="M959.718 696.56v-337.544h-259.636v565.352c30.364-12.016 59.33-26.832 86.538-44.178 71.868-45.744 131.552-108.962 173.098-183.63z" />
<glyph unicode="&#xe93a;" d="M786.62 880.19v-521.174h-86.538v565.352c30.364-12.016 59.328-26.832 86.538-44.178z" />
<glyph unicode="&#xe93b;" d="M699.378 490.276v-141.592c0-44.348-35.94-80.288-80.288-80.288h-151.7c-22.188 0-42.238 8.984-56.784 23.504-14.518 14.544-23.504 34.624-23.504 56.784 0 78.204 63.388 141.592 141.592 141.592h170.684z" />
<glyph unicode="&#xe93c;" d="M1011.654 348.684c0-44.348-35.94-80.288-80.288-80.288h-151.7c-44.348 0-80.288 35.94-80.288 80.288v141.592h170.684c39.116 0 74.508-15.832 100.12-41.472 25.61-25.612 41.472-61.032 41.472-100.12z" />
<glyph unicode="&#xe93d;" d="M829.054 649.674c0-36.46-6.382-70.7-17.614-100.366-23.612-62.51-68.618-104.748-120.254-104.748-76.126 0-137.868 91.82-137.868 205.116s61.742 164.764 137.868 164.764c8.93 0 17.64-0.712 26.078-2.136 63.688-10.766 111.79-62.594 111.79-162.63z" />
<glyph unicode="&#xe93e;" d="M611.808-54.282c-30.74-6.060-62.464-9.384-94.918-9.696l-37.7 285.8-1.338 10.198 79.768-10.198c0 0 3.888-196.148 54.188-276.104z" />
<glyph unicode="&#xe93f;" d="M467.39 268.396c-22.188 0-42.238 8.984-56.784 23.504-14.518 14.544-23.504 34.624-23.504 56.784 0 78.204 63.388 141.592 141.592 141.592 0 0-129.62-73.96-61.304-221.88z" />
<glyph unicode="&#xe940;" d="M829.054 649.674c0-36.46-6.382-70.7-17.614-100.366-20.68-14.326-45.28-22.654-71.66-22.654-73.412 0-132.908 64.4-132.908 143.866 0 71.138 47.718 130.196 110.392 141.784 63.688-10.766 111.79-62.594 111.79-162.63z" />
<glyph unicode="&#xe941;" d="M781.95 662.85h-181.524c-10.388 0-18.808-8.42-18.808-18.808v-11.69c0-10.388 8.42-18.808 18.808-18.808h72.956v-143.354h35.61v70.396c0 40.294 32.664 72.956 72.956 72.956v0c10.388 0 18.808 8.42 18.808 18.808v11.69c0.002 10.388-8.418 18.81-18.806 18.81z" />
<glyph unicode="&#xe942;" d="M943.86 397.134c0-22.693-18.397-41.090-41.090-41.090s-41.090 18.397-41.090 41.090c0 22.693 18.397 41.090 41.090 41.090s41.090-18.397 41.090-41.090z" />
<glyph unicode="&#xe943;" d="M980.376 338.37c0-11.409-9.249-20.658-20.658-20.658s-20.658 9.249-20.658 20.658c0 11.409 9.249 20.658 20.658 20.658s20.658-9.249 20.658-20.658z" />
<glyph unicode="&#xe944;" d="M816.254 688.264c0-11.565-9.375-20.94-20.94-20.94s-20.94 9.375-20.94 20.94c0 11.565 9.375 20.94 20.94 20.94s20.94-9.375 20.94-20.94z" />
<glyph unicode="&#xe945;" d="M788.624 744.25c0-16.561-13.425-29.986-29.986-29.986s-29.986 13.425-29.986 29.986c0 16.561 13.425 29.986 29.986 29.986s29.986-13.425 29.986-29.986z" />
<glyph unicode="&#xe946;" d="M880.41 171.102l-9.53-88.252c-14.044-13.814-28.86-26.812-44.43-38.912-0.042 0.732-0.020 1.442 0.062 2.174l13.96 129.296c0.898 8.422 8.464 14.504 16.886 13.604l9.466-1.024c8.404-0.92 14.506-8.464 13.586-16.886z" />
<glyph unicode="&#xe947;" d="M1024 448c0-59.6-10.178-116.84-28.902-170.046-0.126-0.334-0.23-0.648-0.356-0.982-4.534-12.79-9.572-25.35-15.068-37.658-49.172-110.048-136.066-199.554-244.214-252.114-67.52-32.81-143.338-51.2-223.46-51.2-35.82 0-70.782 3.678-104.51 10.678-9.090 1.88-18.076 4.012-26.98 6.374-31.764 8.4-62.318 19.79-91.346 33.854-72.266 34.984-135.042 86.454-183.484 149.524-24.262 31.576-44.91 66.080-61.336 102.86-5.664 12.622-10.804 25.516-15.444 38.662-1.15 3.28-2.278 6.604-3.364 9.926-16.57 50.366-25.536 104.2-25.536 160.122 0 282.77 229.23 512 512 512 44.658 0 87.98-5.726 129.274-16.468 56.864-14.774 109.882-39.1 157.258-71.158 24.096-16.28 46.706-34.586 67.646-54.648 26.226-25.12 49.778-53.018 70.196-83.194 34.272-50.656 59.726-107.792 74.104-169.19 8.862-37.7 13.522-76.988 13.522-117.342z" />
<glyph unicode="&#xe948;" d="M1024 448c0-59.6-10.178-116.84-28.902-170.046-0.126-0.334-0.23-0.648-0.356-0.982l-310.418-310.42-510.014 510.016 466.964 466.964c56.864-14.774 109.882-39.1 157.258-71.158 54.272-36.718 101.126-83.57 137.842-137.842 55.318-81.752 87.626-180.392 87.626-286.532z" />
<glyph unicode="&#xe949;" d="M1010.48 565.342h-320.554c-6.98 0-13.292 2.822-17.846 7.398-4.576 4.556-7.398 10.866-7.398 17.846 0 13.938 11.284 25.224 25.244 25.224h76.716c6.958 0 13.27 2.822 17.846 7.398s7.398 10.888 7.398 17.846c0 13.938-11.306 25.244-25.244 25.244h-21.42c-6.98 0-13.292 2.822-17.846 7.398-4.576 4.576-7.398 10.888-7.398 17.846 0 13.938 11.306 25.224 25.244 25.224h70.886c6.98 0 13.292 2.822 17.846 7.398 4.576 4.556 7.398 10.866 7.398 17.846 0 13.938-11.306 25.244-25.244 25.244h-155.648c-6.98 0-13.27 2.822-17.846 7.398-4.556 4.556-7.378 10.866-7.378 17.846 0 13.938 11.284 25.224 25.224 25.224h205.72c26.226-25.12 49.778-53.018 70.196-83.194 34.272-50.652 59.726-107.788 74.104-169.186z" />
<glyph unicode="&#xe94a;" d="M298.82 212.166v-0.020c0-13.938-11.306-25.224-25.244-25.224h-7c-6.98 0-13.292-2.822-17.846-7.398-4.576-4.556-7.398-10.866-7.398-17.846 0-13.938-11.306-25.244-25.244-25.244h-110.408c-24.262 31.576-44.91 66.080-61.336 102.86-5.664 12.622-10.804 25.516-15.444 38.662-1.15 3.28-2.278 6.604-3.364 9.926h137.614c13.938 0 25.244-11.306 25.244-25.244s11.284-25.244 25.224-25.244h59.956c13.94-0.004 25.246-11.288 25.246-25.228z" />
<glyph unicode="&#xe94b;" d="M187.232 674.106v0c0 13.938 11.3 25.24 25.24 25.24h212.694c13.938 0 25.24-11.3 25.24-25.24v0c0-13.938-11.3-25.24-25.24-25.24h-68.798c-13.938 0-25.24-11.3-25.24-25.24v0c0-13.938 11.3-25.24 25.24-25.24h7.014c13.938 0 25.24-11.3 25.24-25.24v0c0-13.938-11.3-25.24-25.24-25.24h-203.854c-13.938 0-25.24 11.3-25.24 25.24v0c0 13.938-11.3 25.24-25.24 25.24h-7.014c-13.938 0-25.24 11.3-25.24 25.24v0c0 13.938 11.3 25.24 25.24 25.24h59.956c13.942-0.002 25.242 11.3 25.242 25.24z" />
<glyph unicode="&#xe94c;" d="M767.544 266.642v0.002c0 13.938-11.3 25.238-25.238 25.238h-239.78c-13.938 0-25.238-11.3-25.238-25.238v-0.002c0-13.938 11.3-25.238 25.238-25.238h39.964c13.938 0 25.238-11.3 25.238-25.238v-0.002c0-13.938 11.3-25.238 25.238-25.238h199.816c13.938 0 25.238 11.3 25.238 25.238v0.002c0 13.938-11.3 25.238-25.238 25.238v0c-13.938-0.002-25.238 11.298-25.238 25.238z" />
<glyph unicode="&#xe94d;" d="M1003.918 256.658c-34.942-24.22-98.702-73.54-98.702-73.54l-194.896 280.134h-396.642l-194.894-280.134c0 0-63.76 49.32-98.722 73.54 13.396 33.144 27.774 64.784 42.632 94.772 98.93 199.638 219.742 325.528 219.742 325.528h459.108c0 0 0.146-0.146 0.418-0.438 4.012-4.242 36.718-39.204 80.54-98.43 54.522-73.686 126.266-184.948 181.416-321.432z" />
<glyph unicode="&#xe94e;" d="M685.934 255.488l49.528-268.288c-67.522-32.81-143.34-51.2-223.462-51.2-35.82 0-70.782 3.678-104.51 10.678-9.090 1.88-18.076 4.012-26.98 6.374-31.764 8.4-62.318 19.79-91.346 33.854l52.036 281.976-1.922 13.584-25.474 180.788-30.134 213.702 106.35 49.194 4.304 1.734c4.012 1.63 8.046 3.176 12.1 4.618 34.272 12.35 70.154 18.494 106.016 18.494 40.73 0 81.46-7.942 119.766-23.782 1.358-0.564 2.716-1.128 4.054-1.714l104.742-48.546-57.532-408.074 2.464-13.392z" />
<glyph unicode="&#xe94f;" d="M581.66 323.442v0c-7.694 0-13.932-6.238-13.932-13.932v-93.344c0-7.694 6.238-13.932 13.932-13.932v0c7.694 0 13.932 6.238 13.932 13.932v93.344c0 7.694-6.238 13.932-13.932 13.932z" />
<glyph unicode="&#xe950;" d="M645.746 323.442v0c-7.694 0-13.932-6.238-13.932-13.932v-93.344c0-7.694 6.238-13.932 13.932-13.932v0c7.694 0 13.932 6.238 13.932 13.932v93.344c0.002 7.694-6.236 13.932-13.932 13.932z" />
<glyph unicode="&#xe951;" d="M371.288 323.442v0c-7.694 0-13.932-6.238-13.932-13.932v-93.344c0-7.694 6.238-13.932 13.932-13.932v0c7.694 0 13.932 6.238 13.932 13.932v93.344c-0.002 7.694-6.238 13.932-13.932 13.932z" />
<glyph unicode="&#xe952;" d="M649.006 719.59l-137.884-244.046c-83.676 71.346-112.41 197.276-121.104 250.608l4.304 1.734c4.012 1.63 8.046 3.176 12.1 4.618 34.272 12.35 70.154 18.494 106.016 18.494 40.73 0 81.46-7.942 119.766-23.782 1.358-0.564 2.716-1.128 4.054-1.714l12.748-5.912z" />
<glyph unicode="&#xe953;" d="M657.052 715.87l-3.928-6.666-117.886-209.126c-6.124-10.866-12.058-22.068-17.764-33.584-0.46-0.92-0.92-1.84-1.38-2.758-0.084-0.168-0.168-0.314-0.23-0.48-26.874-54.628-49.298-116.13-66.664-180.788-2.404-9.006-4.722-18.056-6.938-27.168-24.638-101.146-36.99-208.604-34.774-308.622-9.090 1.88-18.076 4.012-26.98 6.374-2.508 87.98 6.144 181.164 25.37 271.716 2.174 10.24 4.472 20.418 6.896 30.532 2.194 9.112 4.494 18.16 6.896 27.168 17.094 64.324 39.372 125.45 65.87 180.788 0.48 1.024 0.982 2.048 1.462 3.052 3.51 7.294 7.106 14.462 10.784 21.524 0.71 1.4 1.442 2.8 2.174 4.2 1.546 2.968 3.114 5.914 4.702 8.818 2.278 4.242 4.576 8.422 6.918 12.56l117.948 209.252c0.042 0.084 0.084 0.146 0.126 0.23l2.55 4.326c1.358-0.564 2.716-1.128 4.054-1.714l20.794-9.634z" />
<glyph unicode="&#xe954;" d="M683.712 255.298h-346.070c-7.502 0-13.584 6.082-13.584 13.584v0c0 7.502 6.082 13.584 13.584 13.584h346.070c7.502 0 13.584-6.082 13.584-13.584v0c0-7.502-6.084-13.584-13.584-13.584z" />
<glyph unicode="&#xe955;" d="M469.438-3.262c-0.59 0-1.182 0.040-1.782 0.118-7.438 0.974-12.678 7.792-11.704 15.232l33.592 256.512c0.85 6.502 6.228 11.466 12.778 11.802 6.558 0.326 12.402-4.058 13.912-10.442l51.572-218.19c1.726-7.302-2.794-14.618-10.096-16.344s-14.618 2.792-16.344 10.096l-34.514 146.018-23.964-182.98c-0.896-6.84-6.734-11.822-13.45-11.822z" />
<glyph unicode="&#xe956;" d="M518.312 465.282l-20.522-14.42-7.188 10.26c-85.054 121.124-105.054 238.78-108.252 261.558l6.082 2.822 5.894 2.382c4.012 1.63 8.046 3.176 12.1 4.618l0.356-3.198c0.208-1.756 15.632-127.436 104.344-253.764l7.186-10.258z" />
<glyph unicode="&#xe957;" d="M274.912 407.542l-156.128-224.424c0 0-63.76 49.32-98.722 73.54 13.396 33.144 27.774 64.784 42.632 94.772 0 0 72.662-59.476 212.218 56.112z" />
<glyph unicode="&#xe958;" d="M252.277 547.899l-44.933 14.987 77.141 231.278 44.933-14.987-77.141-231.278z" />
<glyph unicode="&#xe959;" d="M290.528 779.165l44.933 14.987 77.141-231.278-44.933-14.987-77.141 231.278z" />
<glyph unicode="&#xe95a;" d="M91.256 801.308v0c0-25.776 20.896-46.672 46.672-46.672h344.12c25.776 0 46.672 20.896 46.672 46.672v0 84.29h-437.464v-84.29z" />
<glyph unicode="&#xe95b;" d="M482.046 838.924h-344.12c-25.776 0-46.672 20.896-46.672 46.672v0c0 25.776 20.896 46.672 46.672 46.672h344.12c25.776 0 46.672-20.896 46.672-46.672v0c0-25.776-20.896-46.672-46.672-46.672z" />
<glyph unicode="&#xe95c;" d="M351.776 813.714v-48.504c0-2.174-0.272-4.284-0.794-6.29-2.8-10.888-12.664-18.912-24.408-18.912h-35.966c-13.918 0-25.202 11.284-25.202 25.202v48.504c0 11.744 8.024 21.608 18.912 24.408 2.006 0.522 4.116 0.794 6.29 0.794h35.966c13.916 0.002 25.202-11.284 25.202-25.202z" />
<glyph unicode="&#xe95d;" d="M351.776 813.714v-48.504c0-2.174-0.272-4.284-0.794-6.29-2.006-0.522-4.116-0.794-6.29-0.794h-35.966c-13.918 0-25.202 11.284-25.202 25.202v48.504c0 2.174 0.272 4.284 0.794 6.29 2.006 0.522 4.116 0.794 6.29 0.794h35.966c13.916 0.002 25.202-11.284 25.202-25.202z" />
<glyph unicode="&#xe95e;" d="M822.502 578.090c0 0-90.958-19.906-85.578-153.056l-26.144 37.572 30.22 214.35 0.962-0.438c4.012-4.242 36.716-39.204 80.54-98.428z" />
<glyph unicode="&#xe95f;" glyph-name="law-1" d="M972.026 114.017h-18.799v18.799c0 28.659-23.315 51.974-51.974 51.974h-176.933c-28.659 0-51.974-23.315-51.974-51.974v-18.799h-18.799c-28.659 0-51.974-23.315-51.974-51.974v-35.387c0-9.161 7.427-16.587 16.587-16.587h389.253c9.161 0 16.587 7.427 16.587 16.587v35.387c0 28.659-23.315 51.974-51.974 51.974zM705.521 132.816c0 10.366 8.433 18.799 18.799 18.799h176.933c10.366 0 18.799-8.433 18.799-18.799v-18.799h-214.531v18.799zM990.825 43.244h-356.078v18.799c0 10.366 8.433 18.799 18.799 18.799h318.479c10.366 0 18.799-8.433 18.799-18.799v-18.799zM634.75 471.136l-0.783-0.783c-20.265-20.265-20.265-53.237 0-73.5 9.815-9.815 22.869-15.223 36.751-15.223s26.934 5.408 36.751 15.223l100.089 100.087c9.815 9.815 15.223 22.869 15.223 36.751s-5.408 26.936-15.223 36.751c-9.815 9.815-22.869 15.223-36.751 15.223s-26.936-5.408-36.751-15.223l-0.781-0.783-38.474 38.476c3.311 11.591 0.425 24.596-8.687 33.708l-107.418 107.418c-9.112 9.112-22.117 11.998-33.708 8.685l-38.476 38.474 0.781 0.783c9.815 9.815 15.223 22.869 15.223 36.751s-5.408 26.934-15.223 36.751c-9.815 9.815-22.869 15.223-36.751 15.223s-26.936-5.408-36.751-15.223l-100.087-100.089c-9.815-9.815-15.223-22.869-15.223-36.751s5.408-26.936 15.223-36.751c10.132-10.134 23.441-15.199 36.751-15.199s26.62 5.067 36.751 15.199l0.783 0.783 38.465-38.465c-0.871-3.045-1.342-6.224-1.342-9.479 0-9.158 3.565-17.766 10.041-24.24l4.445-4.445-34.389-34.391c-10.974-10.974-15.953-25.671-15.042-40.062l-394.943-394.941c-9.815-9.815-15.223-22.866-15.223-36.751s5.408-26.936 15.223-36.751c9.815-9.815 22.869-15.223 36.751-15.223s26.936 5.408 36.751 15.223l394.941 394.941c1.104-0.069 2.207-0.157 3.311-0.157 13.308 0 26.62 5.067 36.751 15.199l34.391 34.389 4.445-4.445c6.476-6.476 15.084-10.043 24.24-10.043 3.256 0 6.434 0.471 9.479 1.342l38.465-38.461zM770.807 552.481c4.815 0 9.63-1.833 13.294-5.498 3.55-3.55 5.507-8.269 5.507-13.292s-1.955-9.742-5.507-13.294l-100.089-100.087c-7.332-7.332-19.257-7.329-26.586 0s-7.329 19.257 0 26.586l100.089 100.089c3.665 3.665 8.477 5.496 13.292 5.496zM658.209 494.593l-35.433 35.433 51.609 51.609 35.433-35.433-51.609-51.609zM357.161 720.574c-7.329 7.329-7.329 19.257 0 26.586l100.087 100.089c3.55 3.55 8.272 5.507 13.294 5.507s9.742-1.955 13.292-5.507c7.329-7.329 7.329-19.257 0-26.586l-100.089-100.089c-7.329-7.327-19.255-7.327-26.584 0zM483.054 772.966l35.433-35.433-51.609-51.609-35.433 35.433 51.609 51.609zM65.266 101.83c-3.55-3.55-8.269-5.507-13.292-5.507s-9.742 1.955-13.292 5.507c-3.55 3.55-5.507 8.269-5.507 13.292s1.955 9.742 5.507 13.292l385.78 385.783c0.257-0.268 0.478-0.557 0.743-0.823l25.021-25.021c0.263-0.263 0.553-0.484 0.823-0.743l-385.783-385.78zM500.272 511.813c-7.329-7.329-19.255-7.329-26.586 0l-25.021 25.021c-7.329 7.329-7.329 19.257 0 26.586l34.389 34.391 51.609-51.609-34.391-34.389zM478.606 649.173c-0.080 0.080-0.323 0.323-0.323 0.781s0.243 0.703 0.323 0.783l75.066 75.066c0.217 0.215 0.5 0.323 0.783 0.323s0.566-0.108 0.783-0.323l107.416-107.416c0.431-0.431 0.431-1.135 0-1.566l-75.066-75.066c-0.080-0.080-0.325-0.323-0.783-0.323s-0.701 0.243-0.783 0.323l-107.416 107.418z" />
<glyph unicode="&#xe960;" glyph-name="law-2" d="M848.173 924.613h-443.438v1.106c0 18.903-15.378 34.281-34.281 34.281h-106.16c-18.903 0-34.281-15.378-34.281-34.281v-1.106h-54.186c-28.659 0-51.974-23.315-51.974-51.974v-884.665c0-28.659 23.315-51.974 51.974-51.974h672.346c28.659 0 51.974 23.315 51.974 51.974v884.665c0 28.659-23.315 51.974-51.974 51.974zM263.188 925.719c0 0.61 0.498 1.106 1.106 1.106h106.16c0.608 0 1.106-0.495 1.106-1.106v-203.174l-46.768 23.384c-2.333 1.168-4.877 1.752-7.418 1.752s-5.085-0.584-7.418-1.752l-46.768-23.384v203.174zM866.972-12.026c0-10.366-8.433-18.799-18.799-18.799h-672.346c-10.366 0-18.799 8.433-18.799 18.799v884.665c0 10.366 8.433 18.799 18.799 18.799h54.186v-195.732c0-5.748 2.977-11.087 7.867-14.11 4.894-3.026 11.001-3.298 16.141-0.725l63.355 31.678 63.355-31.678c2.342-1.17 4.883-1.752 7.418-1.752 3.032 0 6.056 0.832 8.721 2.477 4.89 3.023 7.867 8.362 7.867 14.11v195.732h443.438c10.366 0 18.799-8.433 18.799-18.799v-884.665zM662.154 587.742c-9.373 1.522-18.817 0.498-27.407-2.824v2.738c0 26.288-18.644 49.145-43.366 53.168-10.052 1.632-20.184 0.334-29.258-3.583-5.288 19.934-21.387 35.694-41.515 38.97-15.23 2.477-30.634-1.778-42.265-11.671-11.64-9.902-18.317-24.337-18.317-39.606v-4.631c-8.588 3.324-18.032 4.348-27.407 2.824-24.722-4.021-43.366-26.878-43.366-53.166v-91.205c-8.588 3.324-18.029 4.348-27.407 2.824-24.722-4.021-43.366-26.878-43.366-53.166v-121.96c0-96.95 78.875-175.827 175.827-175.827h123.853c48.17 0 87.361 39.191 87.361 87.361v316.586c0 26.288-18.644 49.145-43.366 53.168zM672.346 217.987c0-29.877-24.306-54.186-54.186-54.186h-123.853c-78.658 0-142.652 63.994-142.652 142.652v121.96c0 10.037 6.816 19.007 15.519 20.422 1.104 0.179 2.196 0.268 3.275 0.268 4.492 0 8.727-1.537 12.171-4.465 4.215-3.585 6.633-8.807 6.633-14.332v-88.467c0-9.161 7.425-16.587 16.587-16.587s16.587 7.427 16.587 16.587v228.12c0 10.037 6.816 19.007 15.519 20.422 5.693 0.927 11.178-0.564 15.446-4.198 4.215-3.585 6.633-8.807 6.633-14.332v-141.546c0-9.161 7.425-16.587 16.587-16.587s16.587 7.427 16.587 16.587v194.626c0 5.525 2.417 10.746 6.633 14.332 4.273 3.634 9.767 5.122 15.446 4.198 8.703-1.415 15.519-10.386 15.519-20.422v-192.733c0-9.161 7.425-16.587 16.587-16.587s16.587 7.427 16.587 16.587v159.24c0 5.525 2.417 10.746 6.633 14.332 4.273 3.634 9.767 5.118 15.446 4.198 8.703-1.415 15.519-10.386 15.519-20.422v-175.040c0-9.161 7.425-16.587 16.587-16.587s16.587 7.427 16.587 16.587v123.853c0 5.525 2.417 10.746 6.633 14.332 4.271 3.634 9.769 5.122 15.446 4.198 8.703-1.415 15.519-10.386 15.519-20.422v-316.586z" />
<glyph unicode="&#xe961;" glyph-name="law-3" d="M1023.973 252.681c0.002 0.232 0.027 0.46 0.027 0.692 0 0.051-0.007 0.102-0.009 0.155-0.002 0.376-0.029 0.752-0.058 1.13-0.013 0.184-0.022 0.367-0.042 0.548-0.035 0.325-0.093 0.648-0.148 0.973-0.040 0.232-0.073 0.467-0.124 0.697-0.055 0.25-0.126 0.498-0.192 0.748-0.080 0.299-0.155 0.597-0.25 0.887-0.062 0.19-0.139 0.38-0.208 0.571-0.124 0.338-0.25 0.672-0.396 1-0.022 0.051-0.038 0.104-0.062 0.157l-175.445 385.982v50.592h1.106c18.903 0 34.281 15.378 34.281 34.281v2.627c0 16.915-12.12 31.147-28.818 33.843l-289.662 46.743v29.7c10.994 12.321 17.693 28.553 17.693 46.325 0 38.414-31.253 69.667-69.667 69.667s-69.667-31.253-69.667-69.667c0-17.773 6.699-34.004 17.693-46.325v-28.088l-289.836-48.307c-16.596-2.767-28.643-16.988-28.643-33.814v-2.705c0-18.903 15.378-34.281 34.281-34.281h1.106v-50.592l-175.447-385.982c-0.024-0.051-0.040-0.106-0.062-0.157-0.144-0.325-0.27-0.661-0.394-0.997-0.071-0.19-0.146-0.38-0.21-0.573-0.095-0.29-0.173-0.588-0.25-0.887-0.066-0.25-0.137-0.498-0.192-0.748-0.049-0.23-0.084-0.464-0.124-0.697-0.055-0.325-0.113-0.648-0.148-0.973-0.020-0.181-0.027-0.367-0.042-0.551-0.029-0.376-0.053-0.752-0.058-1.126 0-0.053-0.009-0.104-0.009-0.155 0-0.234 0.024-0.462 0.027-0.697 0.009-0.186 0.007-0.374 0.022-0.56 1.035-68.228 85.622-121.493 193.474-121.493s192.439 53.266 193.472 121.491c0.015 0.186 0.013 0.374 0.022 0.562 0.002 0.232 0.027 0.46 0.027 0.692 0 0.051-0.007 0.102-0.009 0.155-0.002 0.376-0.029 0.752-0.058 1.13-0.013 0.184-0.022 0.367-0.042 0.548-0.035 0.325-0.093 0.648-0.148 0.973-0.040 0.232-0.073 0.467-0.124 0.697-0.055 0.25-0.126 0.498-0.192 0.748-0.080 0.299-0.155 0.597-0.25 0.887-0.062 0.19-0.139 0.38-0.208 0.571-0.124 0.338-0.25 0.672-0.396 1-0.022 0.051-0.038 0.104-0.062 0.157l-175.445 385.984v50.592h249.918v-360.379c-10.539-5.854-17.693-17.092-17.693-29.979v-244.358l-105.076-32.837c-21.814-6.819-36.47-26.754-36.47-49.61v-27.062c0-9.161 7.425-16.587 16.587-16.587h389.253c9.163 0 16.587 7.427 16.587 16.587v27.064c0 22.855-14.657 42.791-36.47 49.61l-105.076 32.834v244.358c0 12.887-7.155 24.125-17.693 29.979v360.379h249.918v-50.592l-175.447-385.984c-0.024-0.051-0.040-0.106-0.062-0.157-0.144-0.325-0.27-0.661-0.394-0.997-0.071-0.19-0.146-0.38-0.21-0.573-0.095-0.29-0.173-0.588-0.25-0.887-0.066-0.25-0.137-0.498-0.192-0.748-0.049-0.23-0.084-0.464-0.124-0.697-0.055-0.325-0.113-0.648-0.148-0.973-0.020-0.181-0.027-0.367-0.042-0.551-0.029-0.376-0.053-0.752-0.058-1.126 0-0.053-0.009-0.104-0.009-0.155 0-0.234 0.024-0.462 0.027-0.697 0.009-0.186 0.007-0.374 0.022-0.56 1.035-68.225 85.622-121.491 193.474-121.491s192.439 53.266 193.472 121.491c0.015 0.188 0.013 0.376 0.022 0.564zM193.521 602.54l151.172-332.579h-302.343l151.172 332.579zM193.521 163.801c-76.807 0-143.077 32.029-157.457 72.985h314.916c-14.382-40.956-80.653-72.985-157.459-72.985zM548.492 306.454v-239.965h-72.985v239.965c0 0.61 0.498 1.106 1.106 1.106h70.773c0.608 0 1.106-0.495 1.106-1.106zM493.201 340.734v482.53c5.985-1.681 12.286-2.599 18.799-2.599s12.814 0.918 18.799 2.599v-482.53h-37.598zM512 926.825c20.122 0 36.492-16.371 36.492-36.492s-16.371-36.492-36.492-36.492-36.492 16.371-36.492 36.492 16.371 36.492 36.492 36.492zM175.827 729.987c-0.608 0-1.106 0.495-1.106 1.106v2.705c0 0.544 0.389 1.002 0.924 1.090l284.38 47.396v-52.297h-284.199zM690.039-20.348v-10.477h-356.078v10.477c0 8.267 5.301 15.479 13.193 17.943l114.299 35.718h101.097l114.299-35.718c7.889-2.466 13.19-9.676 13.19-17.943zM563.974 780.7l284.373-45.89c0.54-0.086 0.931-0.546 0.931-1.093v-2.627c0-0.61-0.498-1.106-1.106-1.106h-284.199v50.716zM830.479 602.54l151.172-332.579h-302.343l151.172 332.579zM830.479 163.801c-76.807 0-143.077 32.029-157.457 72.985h314.916c-14.382-40.956-80.653-72.985-157.459-72.985z" />
<glyph unicode="&#xe962;" glyph-name="law-4" d="M901.253 960h-778.505c-18.903 0-34.281-15.378-34.281-34.281v-955.438c0-18.903 15.378-34.281 34.281-34.281h778.505c18.903 0 34.281 15.378 34.281 34.281v955.438c0 18.903-15.378 34.281-34.281 34.281zM902.359-29.719c0-0.608-0.495-1.106-1.106-1.106h-778.505c-0.61 0-1.106 0.498-1.106 1.106v955.438c0 0.608 0.495 1.106 1.106 1.106h778.505c0.61 0 1.106-0.498 1.106-1.106v-955.438zM227.801 607.24v117.048l75.349-125.58c3.052-5.087 8.504-8.057 14.223-8.057 1.471 0 2.959 0.197 4.428 0.604 7.186 1.988 12.16 8.528 12.16 15.986v176.933c0 9.163-7.427 16.587-16.587 16.587s-16.587-7.425-16.587-16.587v-117.048l-75.349 125.58c-3.835 6.394-11.465 9.45-18.651 7.451-7.186-1.988-12.16-8.528-12.16-15.984v-176.933c0-9.163 7.427-16.587 16.587-16.587s16.587 7.425 16.587 16.587zM476.613 767.585c9.161 0 16.587 7.425 16.587 16.587s-7.427 16.587-16.587 16.587h-88.467c-9.161 0-16.587-7.425-16.587-16.587v-176.933c0-9.163 7.427-16.587 16.587-16.587h88.467c9.161 0 16.587 7.425 16.587 16.587s-7.427 16.587-16.587 16.587h-71.879v55.347c0.367-0.024 0.732-0.055 1.106-0.055h35.387c9.161 0 16.587 7.425 16.587 16.587s-7.427 16.587-16.587 16.587h-35.387c-0.374 0-0.739-0.031-1.106-0.055v55.347h71.879zM548.968 603.365c0.058-0.234 0.106-0.469 0.173-0.699 0.106-0.372 0.232-0.734 0.363-1.095 0.040-0.108 0.071-0.221 0.113-0.327 0.38-0.982 0.847-1.911 1.391-2.782 0.038-0.062 0.082-0.119 0.122-0.179 0.23-0.361 0.471-0.712 0.728-1.051 0.104-0.137 0.215-0.265 0.323-0.4 0.201-0.25 0.407-0.498 0.621-0.734 0.15-0.168 0.31-0.327 0.467-0.489 0.186-0.188 0.374-0.374 0.568-0.553 0.188-0.173 0.378-0.343 0.575-0.506 0.184-0.155 0.374-0.303 0.564-0.449 0.21-0.161 0.42-0.323 0.641-0.476 0.21-0.146 0.429-0.281 0.646-0.416 0.208-0.13 0.409-0.268 0.626-0.389 0.429-0.245 0.871-0.471 1.323-0.677 0.1-0.046 0.206-0.082 0.305-0.124 0.389-0.168 0.783-0.325 1.185-0.462 0.046-0.015 0.088-0.038 0.135-0.053 0.053-0.018 0.106-0.022 0.157-0.040 0.781-0.252 1.579-0.453 2.397-0.588 0.073-0.011 0.146-0.018 0.221-0.029 0.801-0.122 1.612-0.195 2.435-0.197 0.011 0 0.024-0.002 0.035-0.002 0.035 0 0.069 0.009 0.104 0.009 0.708 0.004 1.424 0.069 2.143 0.168 0.197 0.027 0.391 0.053 0.586 0.088 0.139 0.024 0.279 0.033 0.418 0.062 0.599 0.119 1.181 0.276 1.749 0.456 0.080 0.024 0.157 0.060 0.237 0.086 0.679 0.226 1.331 0.495 1.962 0.801 0.119 0.058 0.239 0.113 0.358 0.173 0.686 0.349 1.342 0.741 1.964 1.177 0.084 0.060 0.161 0.124 0.245 0.186 0.56 0.409 1.088 0.849 1.588 1.32 0.1 0.093 0.203 0.181 0.301 0.276 0.518 0.513 0.995 1.062 1.44 1.637 0.119 0.155 0.234 0.314 0.349 0.473 0.438 0.608 0.845 1.234 1.197 1.895 0.038 0.073 0.069 0.15 0.106 0.223 0.349 0.681 0.648 1.391 0.902 2.119 0.024 0.069 0.060 0.128 0.084 0.197l19.651 58.95 19.651-58.95c0.022-0.069 0.060-0.128 0.084-0.197 0.254-0.728 0.551-1.435 0.902-2.119 0.038-0.073 0.069-0.15 0.106-0.223 0.352-0.661 0.759-1.287 1.197-1.895 0.115-0.161 0.23-0.321 0.352-0.476 0.445-0.575 0.922-1.124 1.44-1.637 0.1-0.097 0.203-0.186 0.305-0.279 0.498-0.469 1.024-0.909 1.581-1.316 0.084-0.062 0.166-0.128 0.252-0.19 0.619-0.436 1.276-0.825 1.96-1.174 0.119-0.062 0.241-0.115 0.363-0.175 0.63-0.303 1.281-0.573 1.957-0.798 0.082-0.027 0.159-0.062 0.241-0.088 0.568-0.179 1.15-0.334 1.749-0.453 0.139-0.029 0.279-0.038 0.416-0.062 0.195-0.033 0.391-0.060 0.588-0.088 0.719-0.1 1.433-0.164 2.143-0.168 0.035 0 0.069-0.009 0.104-0.009 0.011 0 0.024 0.002 0.035 0.002 0.825 0 1.637 0.075 2.435 0.197 0.073 0.011 0.146 0.018 0.221 0.029 0.818 0.135 1.619 0.336 2.397 0.588 0.053 0.018 0.106 0.022 0.157 0.040 0.046 0.015 0.088 0.038 0.135 0.053 0.403 0.139 0.796 0.294 1.185 0.462 0.102 0.044 0.206 0.080 0.305 0.124 0.451 0.206 0.891 0.431 1.323 0.677 0.215 0.122 0.418 0.257 0.626 0.389 0.217 0.137 0.436 0.27 0.646 0.416 0.219 0.153 0.429 0.314 0.641 0.476 0.19 0.146 0.38 0.294 0.564 0.449 0.197 0.166 0.387 0.334 0.575 0.506 0.195 0.179 0.383 0.365 0.568 0.553 0.159 0.161 0.316 0.323 0.467 0.489 0.215 0.237 0.42 0.484 0.621 0.734 0.108 0.133 0.219 0.263 0.323 0.4 0.257 0.338 0.498 0.69 0.728 1.051 0.040 0.060 0.084 0.119 0.122 0.179 0.544 0.871 1.013 1.8 1.391 2.782 0.042 0.108 0.073 0.219 0.113 0.327 0.13 0.361 0.257 0.721 0.363 1.095 0.066 0.23 0.115 0.464 0.173 0.699 0.051 0.208 0.111 0.411 0.153 0.621l35.387 176.933c1.796 8.984-4.030 17.722-13.013 19.518-8.99 1.798-17.72-4.030-19.518-13.013l-23.136-115.683-15.634 46.903c-0.038 0.115-0.091 0.221-0.13 0.334-0.1 0.276-0.208 0.551-0.321 0.823-0.104 0.248-0.21 0.493-0.323 0.732-0.111 0.234-0.232 0.462-0.354 0.69-0.137 0.259-0.276 0.513-0.427 0.763-0.124 0.203-0.257 0.403-0.389 0.602-0.166 0.25-0.332 0.495-0.509 0.734-0.148 0.197-0.305 0.387-0.46 0.579-0.179 0.217-0.356 0.433-0.544 0.641-0.186 0.206-0.383 0.403-0.582 0.599-0.175 0.173-0.347 0.347-0.529 0.513-0.23 0.208-0.469 0.407-0.712 0.604-0.168 0.137-0.334 0.274-0.506 0.405-0.259 0.195-0.529 0.376-0.803 0.557-0.177 0.117-0.352 0.234-0.533 0.345-0.268 0.161-0.542 0.312-0.821 0.46-0.21 0.113-0.418 0.221-0.633 0.323-0.257 0.122-0.518 0.237-0.783 0.345-0.257 0.108-0.515 0.208-0.776 0.303-0.119 0.044-0.232 0.097-0.354 0.139-0.126 0.042-0.257 0.066-0.383 0.106-0.285 0.088-0.575 0.168-0.865 0.241-0.243 0.060-0.484 0.117-0.728 0.166-0.29 0.058-0.579 0.106-0.871 0.15-0.252 0.038-0.502 0.071-0.754 0.095-0.283 0.029-0.568 0.046-0.854 0.060-0.261 0.013-0.52 0.022-0.779 0.022-0.276 0-0.553-0.011-0.829-0.024-0.27-0.013-0.537-0.029-0.805-0.055-0.265-0.027-0.529-0.062-0.794-0.102-0.281-0.042-0.557-0.088-0.834-0.144-0.252-0.051-0.502-0.108-0.754-0.173-0.285-0.071-0.568-0.15-0.851-0.237-0.128-0.040-0.259-0.064-0.387-0.108-0.122-0.042-0.234-0.095-0.356-0.139-0.261-0.093-0.518-0.195-0.774-0.301-0.263-0.111-0.524-0.223-0.781-0.345-0.217-0.104-0.429-0.215-0.641-0.327-0.274-0.146-0.546-0.294-0.809-0.456-0.186-0.113-0.367-0.234-0.551-0.356-0.265-0.177-0.531-0.354-0.785-0.544-0.179-0.135-0.352-0.276-0.526-0.418-0.237-0.192-0.471-0.385-0.694-0.588-0.188-0.17-0.365-0.352-0.546-0.531-0.192-0.192-0.383-0.383-0.564-0.582-0.192-0.212-0.376-0.436-0.56-0.659-0.15-0.186-0.303-0.369-0.447-0.56-0.181-0.243-0.352-0.495-0.522-0.75-0.128-0.195-0.259-0.387-0.38-0.588-0.153-0.252-0.294-0.511-0.433-0.772-0.122-0.226-0.239-0.453-0.349-0.683-0.115-0.241-0.221-0.489-0.325-0.736-0.113-0.272-0.221-0.544-0.321-0.821-0.040-0.113-0.093-0.219-0.13-0.334l-15.634-46.903-23.136 115.683c-1.798 8.984-10.536 14.807-19.518 13.013-8.984-1.798-14.809-10.536-13.013-19.518l35.387-176.933c0.035-0.208 0.095-0.411 0.146-0.619zM786.246 712.294h-17.693c-15.245 0-27.646 12.401-27.646 27.646s12.401 27.646 27.646 27.646h44.233c9.161 0 16.587 7.425 16.587 16.587s-7.427 16.587-16.587 16.587h-44.233c-33.538 0-60.821-27.285-60.821-60.821s27.283-60.821 60.821-60.821h17.693c15.245 0 27.646-12.401 27.646-27.646s-12.401-27.646-27.646-27.646h-61.927c-9.161 0-16.587-7.425-16.587-16.587s7.427-16.587 16.587-16.587h61.927c33.538 0 60.821 27.285 60.821 60.821s-27.283 60.821-60.821 60.821zM830.479 553.054h-636.959c-9.161 0-16.587-7.425-16.587-16.587s7.427-16.587 16.587-16.587h636.959c9.161 0 16.587 7.425 16.587 16.587s-7.427 16.587-16.587 16.587zM830.479 871.533h-636.959c-9.161 0-16.587-7.425-16.587-16.587s7.427-16.587 16.587-16.587h636.959c9.161 0 16.587 7.425 16.587 16.587s-7.427 16.587-16.587 16.587zM352.76 236.786c57.926 0 105.054 47.128 105.054 105.054v17.693c0 57.926-47.128 105.054-105.054 105.054s-105.054-47.128-105.054-105.054v-17.693c0-57.926 47.128-105.054 105.054-105.054zM280.881 359.533c0 39.635 32.246 71.879 71.879 71.879s71.879-32.244 71.879-71.879v-17.693c0-39.635-32.246-71.879-71.879-71.879s-71.879 32.244-71.879 71.879v17.693zM446.984 231.945v0c-18.77 4.286-36.99-7.312-41.469-26.396-5.766-24.58-27.46-41.747-52.755-41.747s-46.989 17.167-52.755 41.75c-4.479 19.082-22.698 30.68-41.469 26.394-48.048-10.963-81.604-53.080-81.604-102.424v-35.387c0-28.659 23.315-51.974 51.974-51.974h247.706c28.659 0 51.974 23.315 51.974 51.974v35.387c0 49.344-33.555 91.461-81.604 102.424zM495.413 94.134c0-10.366-8.433-18.799-18.799-18.799h-247.706c-10.366 0-18.799 8.433-18.799 18.799v35.387c0 33.765 22.948 62.583 55.809 70.081 0.104 0.024 0.206 0.035 0.299 0.035 1.044 0 1.422-1.367 1.491-1.663 9.304-39.655 44.277-67.347 85.054-67.347s75.749 27.692 85.054 67.343c0.075 0.323 0.524 1.906 1.791 1.63l0.002-0.002c32.856-7.493 55.805-36.311 55.805-70.077v-35.387zM830.479 446.894h-247.706c-9.161 0-16.587-7.425-16.587-16.587s7.427-16.587 16.587-16.587h247.706c9.161 0 16.587 7.425 16.587 16.587s-7.427 16.587-16.587 16.587zM830.479 358.428h-247.706c-9.161 0-16.587-7.425-16.587-16.587s7.427-16.587 16.587-16.587h247.706c9.161 0 16.587 7.425 16.587 16.587s-7.427 16.587-16.587 16.587zM777.4 269.961h-194.626c-9.161 0-16.587-7.425-16.587-16.587s7.427-16.587 16.587-16.587h194.626c9.161 0 16.587 7.425 16.587 16.587s-7.427 16.587-16.587 16.587zM777.4 181.495h-194.626c-9.161 0-16.587-7.425-16.587-16.587s7.427-16.587 16.587-16.587h194.626c9.161 0 16.587 7.425 16.587 16.587s-7.427 16.587-16.587 16.587zM777.4 93.028h-194.626c-9.161 0-16.587-7.425-16.587-16.587s7.427-16.587 16.587-16.587h194.626c9.161 0 16.587 7.425 16.587 16.587s-7.427 16.587-16.587 16.587z" />
</font>
</defs>
</svg>
